Торрент файл
скачать торрент магнет ссылка Добавлен: 30 авг 2015, 23:38
Размер: 1.46 ГБ
Сидеров: 64
Личеров: 4
Статус: (salma3)
Автор

СообщениеДобавлено: 30 авг 2015, 23:38 

Не в сети
Супермодератор
Аватара пользователя
Дата регистрации:
15 фев 2012, 16:44
Возраст: 28
Спасибо: 6585 / 2145
Сообщения: 44094
Святой / The Saint

Год выхода: 1997
Жанр: боевик, триллер, мелодрама, приключения
Режиссер: Филлип Нойс / Phillip Noyce

В ролях: Вэл Килмер, Элизабет Шу, Раде Шербеджия, Валерий Николаев, Генри Гудман, Алан Армстронг, Майкл Бирн, Евгений Лазарев, Ирина Апексимова, Лев Прыгунов

О фильме:
Вэл Килмер играет роль знаменитого шпиона Саймона Тамплиера, завоевавшего репутацию неуловимого из-за своего редчайшего дара перевоплощения. Уставший от участия в сомнительных предприятиях, Саймон решает, что следующее задание станет последним. Однако оно обещает быть нешуточным. Могущественный промышленный магнат из России Иван Третьяк поручает Саймону добыть сенсационную технологию производства самой дешевой в мире энергии, разработанную гениальным ученым Эммой Рассел. С помощью этой технологии он намерен подчинить себе Россию, переживающую не лучшие времена. В дальнейшие планы магната входит мировое господство…



Страна: США, Mace Neufeld Productions, Paramount Pictures, Rysher Entertainment
Продолжительность: 01:51:23
Перевод: Профессиональный (многоголосый закадровый) [НТВ+]

Файл
Качество: HDTVRip
Формат файла: AVI
Видео кодек: XviD
Аудио кодек: AC3
Видео: 704x304, 25.000 fps, XviD build 73 ~ 1677 kbps
Аудио : AC3, 48.0 KHz, 2 ch, 192 Kbps, [многоголосый]


Общее
Полное имя : Sviyatoy.1997.HDTVRip.avi
Формат : AVI
Формат/Информация : Audio Video Interleave
Размер файла : 1,46 Гбайт
Продолжительность : 1 ч. 51 м.
Общий поток : 1879 Кбит/сек
Программа кодирования : VirtualDubMod 1.5.10.3 | http://www.virtualdub-fr.org || (build 2550/release)
Библиотека кодирования : VirtualDubMod build 2550/release

Видео
Идентификатор : 0
Формат : MPEG-4 Visual
Профиль формата : Advanced Simple@L5
Параметр BVOP формата : 1
Параметр QPel формата : Нет
Параметр GMC формата : Без точки перехода
Параметр матрицы формата : Выборочная
Идентификатор кодека : XVID
Идентификатор кодека/Подсказка : XviD
Продолжительность : 1 ч. 51 м.
Битрейт : 1677 Кбит/сек
Ширина : 704 пикс.
Высота : 304 пикс.
Соотношение сторон : 2,35:1
Частота кадров : 25,000 кадр/сек
Цветовое пространство : YUV
Подвыборка цветности : 4:2:0
Битовая глубина : 8 бит
Тип развёртки : Прогрессивная
Метод сжатия : С потерями
Бит/(Пиксели*Кадры) : 0.313
Размер потока : 1,31 Гбайт (89%)
Библиотека кодирования : XviD 73

Аудио
Идентификатор : 1
Формат : AC-3
Формат/Информация : Audio Coding 3
Расширение режима : CM (complete main)
Идентификатор кодека : 2000
Продолжительность : 1 ч. 51 м.
Вид битрейта : Постоянный
Битрейт : 192 Кбит/сек
Канал(ы) : 2 канала(ов)
Расположение каналов : Front: L R
Частота : 48,0 КГц
Битовая глубина : 16 бит
Метод сжатия : С потерями
Размер потока : 153 Мбайт (10%)
Выравнивание : Разделение по промежуткам
Продолжительность промежутка : 40 мс. (1,00 видеокадр)
Время предзагрузки промежутка : 500 ms


Релиз от: Leon-masl


_________________
Проголосуй за трекер Открытый торрент трекер - RUS-MEDIA.ORG

Проголосуй Открытый торрент трекер - RUS-MEDIA.ORG



реклама партнёра


Вернуться к началу
 Профиль Отправить личное сообщение  
 
   Похожие торренты   Автор   Торрент   Размер 
В этой теме нет новых непрочитанных сообщений. Святой / The Saint [боевик, приключения, мелодрама, 1997] WEB-DL 1080p, Dub

salma3

132 | 94

10.57 ГБ

В этой теме нет новых непрочитанных сообщений. Святой / The Saint [боевик, приключения, мелодрама, 1997] WEB-DLRip, Mvo [Карусель]

salma3

34 | 11

1.61 ГБ

В этой теме нет новых непрочитанных сообщений. Святой / The Saint [боевик, триллер, мелодрама, 1997] WEB-DLRip-AVC, Mvo

salma3

77 | 13

1.64 ГБ

В этой теме нет новых непрочитанных сообщений. Святой / The Saint [боевик, криминал, приключения, 2017] WEB-DLRip, Mvo

salma3

2563 | 236

1.37 ГБ

В этой теме нет новых непрочитанных сообщений. Святой / The Saint [боевик, криминал, приключения, 2017] WEB-DL 720p, Mvo

salma3

726 | 78

2.85 ГБ

В этой теме нет новых непрочитанных сообщений. Святой / The Saint [боевик, криминал, приключения, 2017] WEB-DLRip, Mvo

salma3

261 | 14

1.37 ГБ

В этой теме нет новых непрочитанных сообщений. Святой / The Saint [боевик, криминал, приключения, 2017] WEB-DLRip 720p, Mvo

salma3

147 | 11

2.71 ГБ


Начать новую тему Ответить на тему  [ 1 сообщение ] 




Для Мосгорсуда, Роскомнадзора и рекламодателей:: mosgorsud-torrent[собачка]yandex.ru