Торрент файл
скачать торрент магнет ссылка Добавлен: 27 авг 2015, 12:19
Размер: 5.47 ГБ
Сидеров: 19
Личеров: 1
Статус: (salma3)
Автор

СообщениеДобавлено: 27 авг 2015, 12:19 

Не в сети
Зам. Админа
Аватара пользователя
Дата регистрации:
02 дек 2010, 12:39
Спасибо: 12569 / 214
Сообщения: 28057
Год выпуска: 1996-2011
Жанр: Ужасы, триллер, криминал, детектив
Выпущено: США, Miramax International, Dimension Films, Corvus Corax Productions, Outerbanks Entertainment
Продолжительность: 01:50:56, 02:00:13, 01:56:35, 01:50:44
Перевод: Профессиональный многоголосый (1-ая часть), Дублированный (2,3,4 части)

Режиссер: Уэс Крэйвен
В ролях: Нив Кэмпбелл, Скит Ульрих, Кортни Кокс, Дэвид Аркетт, Роуз МакГоун, Мэттью Лиллард, Джейми Кеннеди, Лоуренс Хехт, Дрю Бэрримор, У. Эрл Браун, Тимоти Олифант, Лив Шрайбер, Джерри О’Коннелл, Стефани Белт, Дуэйн Мартин, Джада Пинкетт Смит, Омар Эппс, Патрик Демпси, Лив Шрайбер, Скотт Фоули, Лэнс Хенриксен, Эмили Мортимер, Паркер Поузи, Дженни МакКарти, Эмма Робертс, Рори Калкин, Хайден Панеттьери, Эрик Кнудсен, Адам Броди, Мэри МакДоннелл, Энтони Андерсон

О фильме: Маленький городок терроризирует маньяк - убийца. Маньяк - киноман, и свои дьявольские идеи он черпает в кинофильмах. Избранные им молодые жертвы могут избежать гибели, если только они следуют правилам, которые предписывают ленты, которых он насмотрелся: не открывать дверь незнакомцам и не спрашивать `кто там?`, не прятаться в кладовой, не отвечать на телефонные звонки, не пить и не употреблять наркотики, не заниматься сексом. И самое главное - никогда, ни при каких обстоятельствах не кричать!

Качество: BDRip
Видео: XviD, ~ 1400 Кбит/с, 720x304
Аудио: AC3, 6 ch, 384 Кбит/с

Крик (1996): Новой жертвой телефонного маньяка из городка Вудсборо может стать ещё одна девушка - Сидни Прескотт. Год назад у неё была изнасилована и убита мать, теперь маньяк угрожает ей самой. Но в первой ночной схватке с убийцей, девушка смогла спастись. Полиция находит на месте покушения маску и плащ. Впрочем, такие маски можно купить в лавке ужасов, и проку для следствия от найденных улик нет никакого. Нет, вроде, и мотивов для убийств, если только не принять за главную версию, что маньяк - страстный поклонник фильмов ужасов и убивает свои жертвы только ради удовольствия. Убийца словно во время игры по телефону и самого убийства смотрит очередной ужастик.
Крик 2 (1997): Прошло два года после кровавой бойни в Вудсборо. Сидни Прескотт поступила в колледж, уехав прочь от безумных воспоминаний. Но прошлое вновь настигает ее: нашумевшая история стала книгой - бестселлером Гэйл Уэзерс, а теперь еще вышел фильм о тех самых событиях, всколыхнувший новую волну террора. И ужас ожил снова, и снова в каждом встречном видится убийца!..
Крик 3 (2000): Как и должно было случиться, ужасные происшествия в Вудсборо стали идеальным материалом для Голливуда: там снималась уже третья серия фильма «Удар ножом». Тем временем Сидни ведет уединенный образ жизни в Северной Калифорнии, где и узнает о новых чудовищных убийствах. Прошлое вновь назначает ей смертельную встречу, и на этот раз круг должен замкнуться...
Крик 4 (2011): Сидни Прескотт последние несколько лет провела в относительной тишине и покое. Жизнь потихоньку налаживается, вдали от вспышек и видеокамер папарацци. Но когда находят труп одного из студентов, мир Сидни Прескотт вновь начинает рушиться. Всему виной возродившийся убийца в маске «Лицо Призрака».

"Крик"
General
Complete name : D:3.ТоррентыScream.Quadrilogy.1996-2011.XviD.BDRipScream.1996.XviD.BDRip.avi
Format : AVI
Format/Info : Audio Video Interleave
File size : 1.37 GiB
Duration : 1h 50mn
Overall bit rate : 1 762 Kbps

Video
ID : 0
Format : MPEG-4 Visual
Format profile : Advanced Simple@L5
Format settings, BVOP : 2
Format settings, QPel : No
Format settings, GMC : No warppoints
Format settings, Matrix : Default (MPEG)
Muxing mode : Packed bitstream
Codec ID : XVID
Codec ID/Hint : XviD
Duration : 1h 50mn
Bit rate : 1 371 Kbps
Width : 720 pixels
Height : 304 pixels
Display aspect ratio : 2.35:1
Frame rate : 23.976 fps
Color space : YUV
Chroma subsampling : 4:2:0
Bit depth : 8 bits
Scan type : Progressive
Compression mode : Lossy
Bits/(Pixel*Frame) : 0.261
Stream size : 1.06 GiB (78%)
Writing library : XviD 1.2.1 (UTC 2008-12-04)

Audio
ID : 1
Format : AC-3
Format/Info : Audio Coding 3
Mode extension : CM (complete main)
Format settings, Endianness : Big
Codec ID : 2000
Duration : 1h 50mn
Bit rate mode : Constant
Bit rate : 384 Kbps
Channel(s) : 6 channels
Channel positions : Front: L C R, Side: L R, LFE
Sampling rate : 48.0 KHz
Bit depth : 16 bits
Compression mode : Lossy
Stream size : 305 MiB (22%)
Alignment : Aligned on interleaves
Interleave, duration : 64 ms (1.53 video frames)
Interleave, preload duration : 192 ms
Title : T2_Audio - Russian
MediaInfo "Крик 2"
Format : AVI
Format/Info : Audio Video Interleave
File size : 1.37 GiB
Duration : 2h 0mn
Overall bit rate : 1 626 Kbps

Video
ID : 0
Format : MPEG-4 Visual
Format profile : Advanced Simple@L5
Format settings, BVOP : 2
Format settings, QPel : No
Format settings, GMC : No warppoints
Format settings, Matrix : Default (MPEG)
Muxing mode : Packed bitstream
Codec ID : XVID
Codec ID/Hint : XviD
Duration : 2h 0mn
Bit rate : 1 234 Kbps
Width : 720 pixels
Height : 304 pixels
Display aspect ratio : 2.35:1
Frame rate : 23.976 fps
Color space : YUV
Chroma subsampling : 4:2:0
Bit depth : 8 bits
Scan type : Progressive
Compression mode : Lossy
Bits/(Pixel*Frame) : 0.235
Stream size : 1.04 GiB (76%)
Writing library : XviD 1.2.1 (UTC 2008-12-04)

Audio
ID : 1
Format : AC-3
Format/Info : Audio Coding 3
Mode extension : CM (complete main)
Format settings, Endianness : Big
Codec ID : 2000
Duration : 2h 0mn
Bit rate mode : Constant
Bit rate : 384 Kbps
Channel(s) : 6 channels
Channel positions : Front: L C R, Side: L R, LFE
Sampling rate : 48.0 KHz
Bit depth : 16 bits
Compression mode : Lossy
Stream size : 330 MiB (24%)
Alignment : Aligned on interleaves
Interleave, duration : 64 ms (1.53 video frames)
Interleave, preload duration : 192 ms
Title : T2_Audio - Russian
MediaInfo "Крик 3"
Format : AVI
Format/Info : Audio Video Interleave
File size : 1.37 GiB
Duration : 1h 56mn
Overall bit rate : 1 682 Kbps

Video
ID : 0
Format : MPEG-4 Visual
Format profile : Advanced Simple@L5
Format settings, BVOP : 2
Format settings, QPel : No
Format settings, GMC : No warppoints
Format settings, Matrix : Default (MPEG)
Muxing mode : Packed bitstream
Codec ID : XVID
Codec ID/Hint : XviD
Duration : 1h 56mn
Bit rate : 1 290 Kbps
Width : 720 pixels
Height : 304 pixels
Display aspect ratio : 2.35:1
Frame rate : 23.976 fps
Color space : YUV
Chroma subsampling : 4:2:0
Bit depth : 8 bits
Scan type : Progressive
Compression mode : Lossy
Bits/(Pixel*Frame) : 0.246
Stream size : 1.05 GiB (77%)
Writing library : XviD 1.2.1 (UTC 2008-12-04)

Audio
ID : 1
Format : AC-3
Format/Info : Audio Coding 3
Mode extension : CM (complete main)
Format settings, Endianness : Big
Codec ID : 2000
Duration : 1h 56mn
Bit rate mode : Constant
Bit rate : 384 Kbps
Channel(s) : 6 channels
Channel positions : Front: L C R, Side: L R, LFE
Sampling rate : 48.0 KHz
Bit depth : 16 bits
Compression mode : Lossy
Stream size : 320 MiB (23%)
Alignment : Aligned on interleaves
Interleave, duration : 64 ms (1.53 video frames)
Interleave, preload duration : 192 ms
Title : T2_Audio - Russian
MediaInfo "Крик 4"
Format : AVI
Format/Info : Audio Video Interleave
File size : 1.37 GiB
Duration : 1h 50mn
Overall bit rate : 1 776 Kbps

Video
ID : 0
Format : MPEG-4 Visual
Format profile : Advanced Simple@L5
Format settings, BVOP : 2
Format settings, QPel : No
Format settings, GMC : No warppoints
Format settings, Matrix : Default (MPEG)
Muxing mode : Packed bitstream
Codec ID : XVID
Codec ID/Hint : XviD
Duration : 1h 50mn
Bit rate : 1 384 Kbps
Width : 720 pixels
Height : 304 pixels
Display aspect ratio : 2.35:1
Frame rate : 24.000 fps
Color space : YUV
Chroma subsampling : 4:2:0
Bit depth : 8 bits
Scan type : Progressive
Compression mode : Lossy
Bits/(Pixel*Frame) : 0.263
Stream size : 1.06 GiB (78%)
Writing library : XviD 1.2.1 (UTC 2008-12-04)

Audio
ID : 1
Format : AC-3
Format/Info : Audio Coding 3
Mode extension : CM (complete main)
Format settings, Endianness : Big
Codec ID : 2000
Duration : 1h 56mn
Bit rate mode : Constant
Bit rate : 384 Kbps
Channel(s) : 6 channels
Channel positions : Front: L C R, Side: L R, LFE
Sampling rate : 48.0 KHz
Bit depth : 16 bits
Compression mode : Lossy
Stream size : 320 MiB (23%)
Alignment : Aligned on interleaves
Interleave, duration : 64 ms (1.53 video frames)
Interleave, preload duration : 192 ms
Title : T2_Audio - Russian




реклама партнёра


Вернуться к началу
 Профиль  
 
   Похожие торренты   Автор   Торрент   Размер 
В этой теме нет новых непрочитанных сообщений. Крик и снова крик / Scream and Scream Again [фантастика, триллер, криминал, 1970] HDTVRip, Dvo [НТВ+]

salma3

39 | 5

1.37 ГБ

В этой теме нет новых непрочитанных сообщений. Крик / Scream [01х01-10 из 10] [ужасы, криминал, детектив, 2015] WEB-DLRip, Mvo [LostFilm]

salma3

235 | 179

4.11 ГБ

В этой теме нет новых непрочитанных сообщений. Крик / Scream / 2 сезон 1-10 серия из 10 [ужасы, криминал, детектив, 2016] WEB-DLRip, Mvo [LostFilm]

salma3

124 | 82

6.45 ГБ

В этой теме нет новых непрочитанных сообщений. Зубастики. Квадрология / Critters. Quadrilogy (Стивен Херек, Мик Гэррис, Кристин Питерсон, Руперт Харви.) [ужасы, фантастика, боевик, триллер, комедия, 1986-1992] WEB-DLRip-AVC, Mvo+Avo+Sub

Dracon

60 | 14

8.72 ГБ

В этой теме нет новых непрочитанных сообщений. Крик / Scream [01х01-10 из 10] (Ли Джаньяк, Джулиус Рамсей, Джеми Трэвис) [ужасы, криминал, детектив, 2015] WEB-DL 720p, Mvo [LostFilm]

Dracon

217 | 206

12.25 ГБ

В этой теме нет новых непрочитанных сообщений. Крик / Scream [01х01-10 из 10] (Ли Джаньяк, Джулиус Рамсей, Джеми Трэвис) [ужасы, криминал, детектив, 2015] WEB-DL 1080p, Mvo [LostFilm]

Dracon

22 | 11

17.35 ГБ

В этой теме нет новых непрочитанных сообщений. Стигматы / Stigmata [Ужасы, триллер, детектив, 1999] BDRip-AVC, Dub+Mvo+Avo+Sub

salma3

123 | 8

3.45 ГБ


Начать новую тему Ответить на тему  [ 1 сообщение ] 




Для Мосгорсуда, Роскомнадзора и рекламодателей:: mosgorsud-torrent[собачка]yandex.ru