Торрент файл
скачать торрент магнет ссылка Добавлен: 26 авг 2015, 21:38
Размер: 1.45 ГБ
Сидеров: 6
Личеров: 0
Статус: (salma3)
Автор

СообщениеДобавлено: 26 авг 2015, 20:31 

Не в сети
Супермодератор
Аватара пользователя
Дата регистрации:
15 фев 2012, 16:44
Возраст: 27
Спасибо: 5143 / 2090
Сообщения: 17478
Некуда бежать / Nowhere To Run

Год выпуска: 1993
Жанр: боевик
Режиссер: Роберт Хармон / Robert Harmon

В ролях: Жан-Клод Ван Дамм, Розанна Аркетт, Киран Калкин, Тед Левайн, Тиффани Тоубмэн, Эдвард Блэтчфорд, Стефен Бриджуотер, Кристи Боткин, Луана Андерс, Джон Рубиноу, Роберт Аписа, Джофри С. Браун, Тони Брубэйкер,

О фильме:
Сэм, беглый заключенный находит кров на уединенной ферме, где живет молодая женщина с двумя детьми. С трудом сбежав от полиции, он уже на пути к свободе, но безопасность тех, кто помог ему в трудную минуту, заставляет его вернуться. Беспомощной женщине и двум ее детям угрожает опасность — подкупленный судья и бандиты хотят отобрать у них дом. B Сэм встает на защиту семьи. В трудной схватке он один противостоит нескольким головорезам, но только так он может заслужить любовь и доверие тех, кто стал для него самым дорогими людьми на свете.



Выпущено: США, Columbia Pictures Corporation
Продолжительность: 01:34:19
Перевод: Профессиональный (многоголосый, закадровый)

Файл
Качество: DVDRip
Формат файла: AVI
Видео кодек: XviD
Аудио кодек: AC3
Видео: 720x400 (1.80:1), 23.976 fps, XviD build 50 ~1810 kbps avg, 0.26 bit/pixel
Audio: 48 kHz, AC3 Dolby Digital, 2/0 (L,R) ch, ~384 kbps


download\Nowhere_to_Run_1993.DVDRip.avi
Формат : AVI
Формат/Информация : Audio Video Interleave
Размер файла : 1,45 Гбайт
Продолжительность : 1 ч. 34 м.
Общий поток : 2204 Кбит/сек
Программа кодирования : VirtualDubMod 1.5.10.3 | http://www.virtualdub-fr.org || (build 2550/release)
Библиотека кодирования : VirtualDubMod build 2550/release

Видео
Идентификатор : 0
Формат : MPEG-4 Visual
Профиль формата : Advanced Simple@L5
Параметр BVOP формата : 1
Параметр QPel формата : Нет
Параметр GMC формата : Без точки перехода
Параметр матрицы формата : Default (H.263)
Идентификатор кодека : XVID
Идентификатор кодека/Подсказка : XviD
Продолжительность : 1 ч. 34 м.
Битрейт : 1811 Кбит/сек
Ширина : 720 пикселей
Высота : 400 пикселей
Соотношение сторон : 16:9
Частота кадров : 23,976 кадра/сек
Цветовое пространство : YUV
Субдискретизация насыщенности : 4:2:0
Битовая глубина : 8 бит
Тип развёртки : Прогрессивная
Метод сжатия : С потерями
Бит/(Пиксели*Кадры) : 0.262
Размер потока : 1,19 Гбайт (82%)
Библиотека кодирования : XviD 1.2.1 (UTC 2008-12-04)

Аудио
Идентификатор : 1
Формат : AC-3
Формат/Информация : Audio Coding 3
Расширение режима : CM (complete main)
Параметр Endianness формата : Big
Идентификатор кодека : 2000
Продолжительность : 1 ч. 34 м.
Вид битрейта : Постоянный
Битрейт : 384 Кбит/сек
Каналы : 2 канала
Расположение каналов : Front: L R
Частота : 48,0 КГц
Метод сжатия : С потерями
Размер потока : 259 Мбайт (17%)
Выравнивание : Разделение по промежуткам
Продолжительность промежутка : 42 мс. (1,00 видеокадр)
Время предзагрузки промежутка : 500 мс.

Релиз от: Автор рипа: _salma3_


_________________



реклама партнёра


Вернуться к началу
 Профиль Отправить личное сообщение  
 
   Похожие торренты   Автор   Торрент   Размер 
В этой теме нет новых непрочитанных сообщений. Некуда бежать / Nowhere to Run [боевик, триллер, драма, 1993] BDRip-AVC, Dub+Sub

salma3

78 | 9

1.45 ГБ

В этой теме нет новых непрочитанных сообщений. Только сильнейшие / Only the Strong [Боевик, 1993] DVDRip, Dvo+Avo

salma3

119 | 3

1.46 ГБ

В этой теме нет новых непрочитанных сообщений. Снова в бой / Back in Action [Боевик, 1993] DVDRip, Avo

salma3

2 | 3

1.46 ГБ

В этой теме нет новых непрочитанных сообщений. Убийство по заказу / The Hit List [боевик, триллер, 1993] DVDRip, Mvo

salma3

181 | 19

1.36 ГБ

В этой теме нет новых непрочитанных сообщений. Киборг-полицейский / Cyborg Cop [фантастика, боевик, 1993] DVDRip, Avo

salma3

3 | 5

1.47 ГБ

В этой теме нет новых непрочитанных сообщений. Карающий удар / Full Impact [Боевик, 1993] DVDRip. Avo

salma3

8 | 2

1.46 ГБ

В этой теме нет новых непрочитанных сообщений. Зона смерти / Kill Zone [боевик, 1993] DVDRip, Avo

salma3

87 | 6

1.37 ГБ


Начать новую тему Ответить на тему  [ 1 сообщение ] 




Для Мосгорсуда, Роскомнадзора и рекламодателей:: mosgorsud-torrent[собачка]yandex.ru