Торрент файл
скачать торрент магнет ссылка Добавлен: 25 авг 2015, 00:47
Размер: 1.46 ГБ
Сидеров: 64
Личеров: 2
Статус: (salma3)
Автор

СообщениеДобавлено: 25 авг 2015, 00:47 

Не в сети
Супермодератор
Аватара пользователя
Дата регистрации:
15 фев 2012, 16:44
Возраст: 27
Спасибо: 5143 / 2090
Сообщения: 17513
Дикий Билл / Wild Bill

Год выхода: 1995
Жанр: Вестерн, Драма, Боевик
Режиссер: Уолтер Хилл / Walter Hill

В ролях: Джефф Бриджес, Эллен Баркин, Джон Хёрт, Дайан Лэйн, Кит Кэррэдайн, Дэвид Аркетт, Кристина Эпплгейт, Джеймс Ремар, Брюс Дерн, Джеймс Гэммон,,,

О фильме:
Молниеносный фильм. Дикий Билл бьет точно в цель! Он был легендой своего времени и остался ею на все времена. Джефф Бриджес олицетворяет Дикого Билла Хиккока, бандита-пропойцу и меткого стрелка, прожившего Жизнь на грани. Захватывающая история Хиккока рассказана в фильме предельно достоверно и увлекательно. Это светлое воспоминание об одном из самых ярких героев Дикого Запада. В городке Дэдвуде, штат Южная Дакота, Дикому Биллу суждено было встретить своего смертельного врага. На улицах появляется таинственный незнакомец (Дэвид Аркетт), который объявляет, что не уедет, пока Хиккок не умрет. Тем временем Дикий Билл продолжает веселиться в объятиях любвеобильной красотки Джейн (Эллен Баркин), хотя в душе продолжает хранить память о другой - единственной любимой женщине. Страсти накаляются, и сюжет достигает своего наивысшего напряжения в кульминационной сцене, когда Хиккок выходит на решающую схватку с врагами... Дикий Билл - выразительный портрет человека-легенды, воплощенный на экране великолепными актерами. Потрясающая операторская работа и точное воссоздание нравов неукротимого Запада! Незабываемое зрелище, достойное называться шедевром жанра.

Страна: США
Продолжительность: 01:33:38
Перевод1: Профессиональный (двухголосый) [НТВ+]
Перевод2: Авторский одноголосый ([А. Гаврилов])

Файл
Качество: HDTVRip
Формат файла: AVI
Видео кодек: XviD
Аудио кодек: AC3
Видео: 704x400, 25.000 fps, 1836 kbps
Аудио 1: AC3, 2 ch, 192.00 kbps. [двухголосый]
Аудио 2: AC3, 2 ch, 192.00 kbps. [Авторский]


Общее
Полное имя : Dikiy.Bill.1995.HDTVRip.avi
Формат : AVI
Формат/Информация : Audio Video Interleave
Размер файла : 1,46 Гбайт
Продолжительность : 1 ч. 33 м.
Общий поток : 2235 Кбит/сек
Программа кодирования : VirtualDubMod 1.5.10.2 (build 2542/release)
Библиотека кодирования : VirtualDubMod build 2542/release

Видео
Идентификатор : 0
Формат : MPEG-4 Visual
Профиль формата : Advanced Simple@L5
Параметр BVOP формата : 1
Параметр QPel формата : Нет
Параметр GMC формата : Без точки перехода
Параметр матрицы формата : Выборочная
Идентификатор кодека : XVID
Идентификатор кодека/Подсказка : XviD
Продолжительность : 1 ч. 33 м.
Битрейт : 1836 Кбит/сек
Ширина : 704 пикс.
Высота : 400 пикс.
Соотношение сторон : 16:9
Частота кадров : 25,000 кадр/сек
Цветовое пространство : YUV
Подвыборка цветности : 4:2:0
Битовая глубина : 8 бит
Тип развёртки : Прогрессивная
Метод сжатия : С потерями
Бит/(Пиксели*Кадры) : 0.261
Размер потока : 1,20 Гбайт (82%)
Библиотека кодирования : XviD 73

Аудио #1
Идентификатор : 1
Формат : AC-3
Формат/Информация : Audio Coding 3
Расширение режима : CM (complete main)
Идентификатор кодека : 2000
Продолжительность : 1 ч. 33 м.
Вид битрейта : Постоянный
Битрейт : 192 Кбит/сек
Канал(ы) : 2 канала(ов)
Расположение каналов : Front: L R
Частота : 48,0 КГц
Битовая глубина : 16 бит
Метод сжатия : С потерями
Размер потока : 129 Мбайт (9%)
Выравнивание : Разделение по промежуткам
Продолжительность промежутка : 40 мс. (1,00 видеокадр)
Время предзагрузки промежутка : 500 ms

Аудио #2
Идентификатор : 2
Формат : AC-3
Формат/Информация : Audio Coding 3
Расширение режима : CM (complete main)
Идентификатор кодека : 2000
Продолжительность : 1 ч. 33 м.
Вид битрейта : Постоянный
Битрейт : 192 Кбит/сек
Канал(ы) : 2 канала(ов)
Расположение каналов : Front: L R
Частота : 48,0 КГц
Битовая глубина : 16 бит
Метод сжатия : С потерями
Размер потока : 129 Мбайт (9%)
Выравнивание : Разделение по промежуткам
Продолжительность промежутка : 40 мс. (1,00 видеокадр)
Время предзагрузки промежутка : 500 ms


Релиз от: Leon-masl


_________________



реклама партнёра


Вернуться к началу
 Профиль Отправить личное сообщение  
 
   Похожие торренты   Автор   Торрент   Размер 
В этой теме нет новых непрочитанных сообщений. Дикий Билл / Wild Bill [драма, 2011] BDRip 1080p, 3Avo+Sub

salma3

30 | 6

10.47 ГБ

В этой теме нет новых непрочитанных сообщений. Дикий Билл / Wild Bill [драма, 2011] BDRip 720p, 3Avo+Sub

salma3

96 | 8

5.75 ГБ

В этой теме нет новых непрочитанных сообщений. Мистер Холмс / Mr. Holmes (Билл Кондон / Bill Condon) [2015г., Великобритания, драма, детектив, HDRip] Sub

Alfredovich

9 | 0

1.41 ГБ

В этой теме нет новых непрочитанных сообщений. Невероятный Блинки Билл / Blinky Bill the Movie [мультфильм, приключения, семейный, 2015] HDRip, Mvo

salma3

138 | 13

1.37 ГБ

В этой теме нет новых непрочитанных сообщений. Буль и Билл / Boule & Bill (Александр Шарло, Франк Манье) [Комедия, Семейный, 2013] HDRip, Mvo

Dracon

6 | 4

1.37 ГБ

В этой теме нет новых непрочитанных сообщений. Невероятный Блинки Билл / Blinky Bill the Movie [мультфильм, приключения, семейный, 2015] BDRip 720p, Dub [iTunes]

salma3

19 | 5

3.51 ГБ

В этой теме нет новых непрочитанных сообщений. Отель Мира / Woh ping faan dim [боевик, драма, вестерн, 1995] DVDRip, Avo

salma3

6 | 6

1.45 ГБ


Начать новую тему Ответить на тему  [ 1 сообщение ] 




Для Мосгорсуда, Роскомнадзора и рекламодателей:: mosgorsud-torrent[собачка]yandex.ru