Торрент файл
скачать торрент магнет ссылка Добавлен: 18 авг 2015, 10:32
Размер: 1.46 ГБ
Сидеров: 56
Личеров: 0
Статус: (salma3)
Автор

СообщениеДобавлено: 18 авг 2015, 10:32 

В сети
Супермодератор
Аватара пользователя
Дата регистрации:
15 фев 2012, 16:44
Возраст: 27
Спасибо: 5132 / 2089
Сообщения: 17377
Два дня в долине / 2 Days in the Valley

Год выхода: 1996
Жанр: Триллер, криминал, комедия
Режиссер: Джон Херцфелд / John Herzfeld

В ролях: Дэнни Айелло, Джеймс Спэйдер, Шарлиз Терон, Тери Хэтчер, Эрик Столц, Джеф Дэниелс, Гленн Хедли, Питер Хортон,

О фильме:
Известная спортсменка Бекки Фокс нанимает двух киллеров: Ли и Дозмо, чтобы убить своего бывшего мужа и получить страховку. Эта часть плана проходит успешно: гангстеры скрываются, вдова получает страховку. А вот дальше все идет кувырком. За следующие два дня произойдет многое: убитый остается в живых, сообщница становится жертвой, самоубийца — убийцей, а два детектива Элвин и Уэс, работающие по тривиальному делу с массажным салоном, оказываются чересчур близко от летящих пуль.

Страна: США
Продолжительность: 01:44:44
Перевод1: Профессиональный (многоголосый закадровый)
Перевод2: Авторский (одноголосый закадровый [Гаврилов]

Файл
Качество: HDTVRip
Формат файла: AVI
Видео кодек: XviD
Аудио кодек: AC3
Видео: 720x400, 23.976 fps, XviD build 73 ~1603 kbps avg,
Аудио 1: 48 kHz, AC3 Dolby Digital, 2/0 (L,R) ch, ~192.00 kbps avg [многоголосый]
Аудио 2: 48 kHz, AC3 Dolby Digital, 2/0 (L,R) ch, ~192.00 kbps avg [одноголосый]


Общее
Полное имя : 2.Days.in.the.Valley.1996.HDTVRip.2xRus.avi
Формат : AVI
Формат/Информация : Audio Video Interleave
Размер файла : 1,46 Гбайт
Продолжительность : 1 ч. 44 м.
Общий поток : 2001 Кбит/сек
Программа кодирования : VirtualDubMod 1.5.10.2 (build 2542/release)
Библиотека кодирования : VirtualDubMod build 2542/release

Видео
Идентификатор : 0
Формат : MPEG-4 Visual
Профиль формата : Advanced Simple@L5
Параметр BVOP формата : 1
Параметр QPel формата : Нет
Параметр GMC формата : Без точки перехода
Параметр матрицы формата : Выборочная
Идентификатор кодека : XVID
Идентификатор кодека/Подсказка : XviD
Продолжительность : 1 ч. 44 м.
Битрейт : 1603 Кбит/сек
Ширина : 720 пикс.
Высота : 400 пикс.
Соотношение сторон : 16:9
Частота кадров : 23,976 кадр/сек
Цветовое пространство : YUV
Подвыборка цветности : 4:2:0
Битовая глубина : 8 бит
Тип развёртки : Прогрессивная
Метод сжатия : С потерями
Бит/(Пиксели*Кадры) : 0.232
Размер потока : 1,17 Гбайт (80%)
Библиотека кодирования : XviD 73

Аудио #1
Идентификатор : 1
Формат : AC-3
Формат/Информация : Audio Coding 3
Расширение режима : CM (complete main)
Идентификатор кодека : 2000
Продолжительность : 1 ч. 44 м.
Вид битрейта : Постоянный
Битрейт : 192 Кбит/сек
Канал(ы) : 2 канала(ов)
Расположение каналов : Front: L R
Частота : 48,0 КГц
Битовая глубина : 16 бит
Метод сжатия : С потерями
Размер потока : 144 Мбайт (10%)
Выравнивание : Разделение по промежуткам
Продолжительность промежутка : 42 мс. (1,00 видеокадр)
Время предзагрузки промежутка : 500 ms

Аудио #2
Идентификатор : 2
Формат : AC-3
Формат/Информация : Audio Coding 3
Расширение режима : CM (complete main)
Идентификатор кодека : 2000
Продолжительность : 1 ч. 44 м.
Вид битрейта : Постоянный
Битрейт : 192 Кбит/сек
Канал(ы) : 2 канала(ов)
Расположение каналов : Front: L R
Частота : 48,0 КГц
Битовая глубина : 16 бит
Метод сжатия : С потерями
Размер потока : 144 Мбайт (10%)
Выравнивание : Разделение по промежуткам
Продолжительность промежутка : 42 мс. (1,00 видеокадр)
Время предзагрузки промежутка : 500 ms


Релиз от: Leon-masl


_________________



реклама партнёра


Вернуться к началу
 Профиль Отправить личное сообщение  
 
   Похожие торренты   Автор   Торрент   Размер 
В этой теме нет новых непрочитанных сообщений. В долине Эла / In the Valley of Elah [триллер, драма, криминал, детектив, 2007] HDRip, Dub

salma3

312 | 19

1.45 ГБ

В этой теме нет новых непрочитанных сообщений. В долине насилия / In a Valley of Violence [вестерн, 2016] WEB-DLRip, Mvo

salma3

1761 | 1003

1.46 ГБ

В этой теме нет новых непрочитанных сообщений. Беглецы / Fled [Боевик, криминал, комедия, 1996] HDTVRip, Dub+Avo

salma3

96 | 5

1.46 ГБ

В этой теме нет новых непрочитанных сообщений. Кремниевая долина / Silicon Valley [S01-02] (Майк Джадж) [2014-2015, Комедия, HDTVRip | Кубик в Кубе]

Dracon

17 | 9

5.35 ГБ

В этой теме нет новых непрочитанных сообщений. Победитель / The Winner [Триллер, комедия, криминал, 1996] DVDRip, Mvo

salma3

8 | 6

1.45 ГБ

В этой теме нет новых непрочитанных сообщений. Кремниевая долина / Силиконовая долина / Silicon Valley [02x01-06 из 10] (Майк Джадж) [2015, комедия, HDTVRip | Кубик в Кубе]

Nickolas3435

80 | 18

1.75 ГБ

В этой теме нет новых непрочитанных сообщений. Три дня на побег / The Next Three Days [триллер, драма, мелодрама, криминал, 2010] BDRip, Dub

salma3

118 | 4

1.46 ГБ


Начать новую тему Ответить на тему  [ 1 сообщение ] 




Для Мосгорсуда, Роскомнадзора и рекламодателей:: mosgorsud-torrent[собачка]yandex.ru