Торрент файл
скачать торрент магнет ссылка Добавлен: 14 авг 2015, 19:23
Размер: 1.46 ГБ
Сидеров: 25
Личеров: 5
Статус: (salma3)
Автор

СообщениеДобавлено: 14 авг 2015, 19:23 

Не в сети
Супермодератор
Аватара пользователя
Дата регистрации:
15 фев 2012, 16:44
Возраст: 27
Спасибо: 5130 / 2089
Сообщения: 17350
Производство: США / Fries Entertainment, Weintraub Entertainment Group
Жанр: Комедия, Приключения
Продолжительность: 01:45:56
Перевод: Многоголосый закадровый
Субтитры: Английские

Режиссер: Джеф Кэнью

Актеры: Шелли Лонг, Бетти Томас, Крэйг Т. Нелсон, Мэри Гросс, Стефани Бичем, Одра Линдли, Эдд Бернс, Эми Фостер, Карла Гуджино, Хезер Хоппер

Описание:
Филлис Нефлер живет в шикарном доме в самом богатом квартале Америки Беверли-Хиллз. Она имеет все, что можно иметь за деньги, и мается от скуки и безделья. Единственное, что тревожит Филлис - испортившиеся отношения с мужем Фредди. Перспектива остаться одной ее совсем не радует. И чтобы доказать мужу, что с годами она не утратила кураж и дух авантюризма, Филлис соглашается возглавить скаутскую группу своей дочери Ханны и смело отправляется с девочками в поход...

Качество видео: WEB-DLRip-AVC
Видео: AVC, 960x536 (16:9), 23.976 fps, 1 784 Kbps (0.145 bit/pixel)
Аудио: AC-3, 48.0 KHz, 2 ch, 192 Kbps, CBR (Russian)
Релиз от: FAGOT100

Формат : Matroska
Версия формата : Version 2
Размер файла : 1,46 Гбайт
Продолжительность : 1 ч. 45 м.
Общий поток : 1978 Кбит/сек
Дата кодирования : UTC 2015-08-13 19:58:59
Программа кодирования : mkvmerge v5.3.0 ('I could have danced') built on Feb 9 2012 10:38:07
Библиотека кодирования : libebml v1.2.3 + libmatroska v1.3.0
Attachment : Yes

Видео
Идентификатор : 1
Формат : AVC
Формат/Информация : Advanced Video Codec
Профиль формата : High@L4.1
Параметр CABAC формата : Да
Параметр ReFrames формата : 9 кадров
Идентификатор кодека : V_MPEG4/ISO/AVC
Продолжительность : 1 ч. 45 м.
Битрейт : 1784 Кбит/сек
Ширина : 960 пикселей
Высота : 536 пикселей
Соотношение сторон : 16:9
Режим частоты кадров : Постоянный
Частота кадров : 23,976 кадра/сек
Цветовое пространство : YUV
Субдискретизация насыщенности : 4:2:0
Битовая глубина : 8 бит
Тип развёртки : Прогрессивная
Бит/(Пиксели*Кадры) : 0.145
Размер потока : 1,29 Гбайт (88%)
Библиотека кодирования : x264 core 146 r2538 121396c
Настройки программы : cabac=1 / ref=9 / deblock=1:-1:-1 / analyse=0x3:0x133 / me=umh / subme=10 / psy=1 / psy_rd=1.00:0.00 / mixed_ref=1 / me_range=24 / chroma_me=1 / trellis=2 / 8x8dct=1 / cqm=0 / deadzone=21,11 / fast_pskip=0 / chroma_qp_offset=-2 / threads=12 / lookahead_threads=1 / sliced_threads=0 / nr=0 / decimate=0 / interlaced=0 / bluray_compat=0 / constrained_intra=0 / bframes=6 / b_pyramid=2 / b_adapt=2 / b_bias=0 / direct=3 / weightb=1 / open_gop=0 / weightp=2 / keyint=240 / keyint_min=23 / scenecut=40 / intra_refresh=0 / rc=2pass / mbtree=0 / bitrate=1784 / ratetol=1.0 / qcomp=0.60 / qpmin=0 / qpmax=69 / qpstep=4 / cplxblur=20.0 / qblur=0.5 / ip_ratio=1.40 / pb_ratio=1.30 / aq=1:1.00
Язык : English
Default : Да
Forced : Нет

Аудио
Идентификатор : 2
Формат : AC-3
Формат/Информация : Audio Coding 3
Расширение режима : CM (complete main)
Параметр Endianness формата : Big
Идентификатор кодека : A_AC3
Продолжительность : 1 ч. 45 м.
Вид битрейта : Постоянный
Битрейт : 192 Кбит/сек
Каналы : 2 канала
Расположение каналов : Front: L R
Частота : 48,0 КГц
Битовая глубина : 16 бит
Метод сжатия : С потерями
Задержка видео : 2 с. 0 мс.
Размер потока : 145 Мбайт (10%)
Заголовок : ПМ
Язык : Russian
Default : Да
Forced : Да

Текст
Идентификатор : 3
Формат : UTF-8
Идентификатор кодека : S_TEXT/UTF8
Идентификатор кодека/Информация : UTF-8 Plain Text
Язык : English
Default : Нет
Forced : Нет

Меню
00:00:00.000 : en:Start
00:03:16.000 : en:The New Applicant
00:06:19.000 : en:Freddy, the Big Bad Wolf
00:11:44.000 : en:Troop Beverly Hills
00:17:03.000 : en:The Sacred Uniform
00:24:25.000 : en:Overnight Camp-Out
00:26:46.000 : en:Scary Stories
00:33:35.000 : en:Wilderness Craft Day
00:39:47.000 : en:Grooming
00:40:51.000 : en:Create a Patch
00:41:26.000 : en:Dance
00:42:21.000 : en:CPR
00:43:17.000 : en:Community Service
00:44:20.000 : en:Divorce Court
00:47:06.000 : en:Emily
00:50:04.000 : en:The Patch Ceremony
00:52:20.000 : en:Presenting the Evidence
00:54:36.000 : en:Chica
00:55:59.000 : en:Patches Revoked!
01:00:00.000 : en:Emergency Cookie meeting
01:02:34.000 : en:Community Involvement
01:06:43.000 : en:Check Presentation Gala
01:18:02.000 : en:Farewell to the Troop
01:19:40.000 : en:The Wilderness Jamboree
01:22:20.000 : en:Survival Competition
01:27:43.000 : en:Crossing the Chasm
01:34:13.000 : en:Rescuing the Beast
01:36:37.000 : en:Victory


_________________



реклама партнёра


Вернуться к началу
 Профиль Отправить личное сообщение  
 
   Похожие торренты   Автор   Торрент   Размер 
В этой теме нет новых непрочитанных сообщений. Отряд Беверли Хиллз / Troop Beverly Hills [комедия, приключения, 1989] HDRip, Mvo

salma3

25 | 0

1.47 ГБ

В этой теме нет новых непрочитанных сообщений. Без гроша в Беверли Хиллз / Down and Out in Beverly Hills [Комедия, 1986] WEB-DLRip 720p, Mvo+Sub

salma3

0 | 2

3.3 ГБ

В этой теме нет новых непрочитанных сообщений. Террор в Беверли Хиллз / Terror in Beverly Hills [Боевик, 1989] DVDRip, Avo

salma3

0 | 2

1.36 ГБ

В этой теме нет новых непрочитанных сообщений. Взятие Беверли Хиллз / Захват Беверли Хиллз / The Taking of Beverly Hills [Боевик, 1991] HDTV 1080i, Dvo [НТВ +]

salma3

6 | 2

3.42 ГБ

В этой теме нет новых непрочитанных сообщений. Ниндзя из Беверли Хиллз / Beverly Hills Ninja [Комедия, приключения, боевик, 1997] HDRip, Mvo

salma3

92 | 9

1.46 ГБ

В этой теме нет новых непрочитанных сообщений. Трущобы Беверли Хиллз / Slums of Beverly Hills [драма, комедия, 1998] BDRip AVC, Mvo+Sub

salma3

28 | 4

2.31 ГБ

В этой теме нет новых непрочитанных сообщений. Трущобы Беверли Хиллз / Slums of Beverly Hills [драма, комедия, 1998] BDRip 1080p, Mvo+Sub

salma3

21 | 5

8.77 ГБ


Начать новую тему Ответить на тему  [ 1 сообщение ] 




Для Мосгорсуда, Роскомнадзора и рекламодателей:: mosgorsud-torrent[собачка]yandex.ru