Торрент файл
скачать торрент магнет ссылка Добавлен: 14 авг 2015, 19:19
Размер: 2.02 ГБ
Сидеров: 41
Личеров: 8
Статус: (salma3)
Автор

СообщениеДобавлено: 14 авг 2015, 19:19 

В сети
Супермодератор
Аватара пользователя
Дата регистрации:
15 фев 2012, 16:44
Возраст: 27
Спасибо: 5139 / 2090
Сообщения: 17443
Год выпуска: 1985
Страна: США
Жанр: комедия
Продолжительность: 01:31:05
Перевод: авторский

Режиссёр: Херб Фрид

В ролях: Бетси Расселл, Джерард Кристофер, Кристи Сомерс, Ричард Эрдман, Филип Стерлинг, Эрик Дуглас, Пол Ганнинг, Тоби Иланд

Описание: Девушка Томми даст фору любому парню. Вместо развлечений и свиданий всё своё время она проводит в авто-мастерской, ведь Томми - великолепный механик. Но всё меняется, когда она знакомится с Рэнди Старком, знаменитым автогонщиком...



Качество: BDRip AVC Сравнение с исходником
Формат: MKV
Видео: MPEG-4 AVC, 2921 Кбит/с, 1024x576, 23,976 кадра/с
Аудио: русский, AC3, 192 kbps, 2 ch, 48 kHz [авторский, Котов]

Общее
Уникальный идентификатор : 208639823192275014832431374826502954678 (0x9CF6917C9E256FCEA6D87DCC67811EB6)
Полное имя : D:VideoДевчонка-сорванец.1985.BDRip.AVC.mkv
Формат : Matroska
Версия формата : Version 4 / Version 2
Размер файла : 2,02 Гбайт
Продолжительность : 1 ч. 31 м.
Общий поток : 3176 Кбит/сек
Название фильма : BDRip -- STarankov
Дата кодирования : UTC 2015-08-12 08:12:53
Программа кодирования : mkvmerge v8.2.0 ('World of Adventure') 64bit
Библиотека кодирования : libebml v1.3.1 + libmatroska v1.4.2
DURATION : 01:30:22.496000000
NUMBER_OF_FRAMES : 169453
NUMBER_OF_BYTES : 130139904
_STATISTICS_WRITING_APP : mkvmerge v8.2.0 ('World of Adventure') 64bit
_STATISTICS_WRITING_DATE_UTC : 2015-08-12 08:12:53
_STATISTICS_TAGS : BPS DURATION NUMBER_OF_FRAMES NUMBER_OF_BYTES

Видео
Идентификатор : 1
Формат : AVC
Формат/Информация : Advanced Video Codec
Профиль формата : High@L4.1
Параметр CABAC формата : Да
Параметр ReFrames формата : 9 кадров
Идентификатор кодека : V_MPEG4/ISO/AVC
Продолжительность : 1 ч. 31 м.
Битрейт : 2921 Кбит/сек
Ширина : 1024 пикселя
Высота : 576 пикселей
Соотношение сторон : 16:9
Режим частоты кадров : Постоянный
Частота кадров : 23,976 кадра/сек
Цветовое пространство : YUV
Субдискретизация насыщенности : 4:2:0
Битовая глубина : 8 бит
Тип развёртки : Прогрессивная
Бит/(Пиксели*Кадры) : 0.207
Размер потока : 1,86 Гбайт (92%)
Библиотека кодирования : x264 core 146 r2538 121396c
Настройки программы : cabac=1 / ref=9 / deblock=1:-3:-3 / analyse=0x3:0x113 / me=umh / subme=10 / psy=1 / psy_rd=1.00:0.15 / mixed_ref=1 / me_range=32 / chroma_me=1 / trellis=2 / 8x8dct=1 / cqm=0 / deadzone=21,11 / fast_pskip=1 / chroma_qp_offset=-3 / threads=6 / lookahead_threads=1 / sliced_threads=0 / nr=0 / decimate=1 / interlaced=0 / bluray_compat=0 / constrained_intra=0 / bframes=10 / b_pyramid=2 / b_adapt=2 / b_bias=0 / direct=1 / weightb=1 / open_gop=0 / weightp=2 / keyint=230 / keyint_min=23 / scenecut=40 / intra_refresh=0 / rc_lookahead=40 / rc=crf / mbtree=0 / crf=20.8 / qcomp=0.60 / qpmin=0 / qpmax=69 / qpstep=4 / vbv_maxrate=40000 / vbv_bufsize=50000 / crf_max=0.0 / nal_hrd=none / filler=0 / ip_ratio=1.40 / pb_ratio=1.30 / aq=1:1.00
Язык : English
Default : Да
Forced : Нет
DURATION : 01:31:05.502000000
NUMBER_OF_FRAMES : 131041
NUMBER_OF_BYTES : 2038591138
_STATISTICS_WRITING_APP : mkvmerge v8.2.0 ('World of Adventure') 64bit
_STATISTICS_WRITING_DATE_UTC : 2015-08-12 08:12:53
_STATISTICS_TAGS : BPS DURATION NUMBER_OF_FRAMES NUMBER_OF_BYTES

Аудио
Идентификатор : 2
Формат : AC-3
Формат/Информация : Audio Coding 3
Расширение режима : CM (complete main)
Параметр Endianness формата : Big
Идентификатор кодека : A_AC3
Продолжительность : 1 ч. 31 м.
Вид битрейта : Постоянный
Битрейт : 192 Кбит/сек
Каналы : 2 канала
Расположение каналов : Front: L R
Частота : 48,0 КГц
Метод сжатия : С потерями
Размер потока : 125 Мбайт (6%)
Заголовок : AVO (Котов)
Язык : Russian
Default : Да
Forced : Нет








_________________



реклама партнёра


Вернуться к началу
 Профиль Отправить личное сообщение  
 
   Похожие торренты   Автор   Торрент   Размер 
В этой теме нет новых непрочитанных сообщений. Девчонка - сорванец / Tomboy [комедия, 1985] BDRip 720p, Avo

salma3

19 | 6

3.54 ГБ

В этой теме нет новых непрочитанных сообщений. Девчонка-сорванец / Garçon manqué (Давид Дельрие / David Delrieux) [2008г., драма, DVDRip] AVO

Alfredovich

0 | 2

1.37 ГБ

В этой теме нет новых непрочитанных сообщений. Шпионы как мы / Spies Like Us [комедия, приключения, 1985] BDRip, Mvo+Avo

salma3

23 | 3

1.46 ГБ

В этой теме нет новых непрочитанных сообщений. Девчонка, которую убить мало / Holka na zabití [криминал, комедия, детектив, 1975] DVDRip, Avo

salma3

26 | 3

1.46 ГБ

В этой теме нет новых непрочитанных сообщений. Волна преступности / Crimewave [комедия, 1985] BDRip 720p, Mvo+Avo

salma3

48 | 20

5.36 ГБ

В этой теме нет новых непрочитанных сообщений. Реаниматор / Re-Animator [ужасы, фантастика, комедия, 1985] BDRip, Mvo

salma3

8 | 3

1.45 ГБ

В этой теме нет новых непрочитанных сообщений. Миллионы Брюстера / Brewster's Millions [Комедия, 1985] BDRip 720p, Mvo

salma3

15 | 4

9.07 ГБ


Начать новую тему Ответить на тему  [ 1 сообщение ] 




Для Мосгорсуда, Роскомнадзора и рекламодателей:: mosgorsud-torrent[собачка]yandex.ru