Торрент файл
скачать торрент магнет ссылка Добавлен: 12 авг 2015, 13:40
Размер: 1.46 ГБ
Сидеров: 49
Личеров: 4
Статус: (salma3)
Автор

СообщениеДобавлено: 12 авг 2015, 13:40 

Не в сети
Супермодератор
Аватара пользователя
Дата регистрации:
15 фев 2012, 16:44
Возраст: 27
Спасибо: 5143 / 2090
Сообщения: 17478
Множество / Multiplicity

Год выхода: 1996
Жанр: Комедия, Фантастика
Режиссер: Харолд Рэймис

В ролях: Майкл Китон, Энди МакДауэлл, Харрис Юлин, Ричард Мазур, Юджин Ливай, Обба Бабатунде, Энн Кьюсак, Джон Де Лэнси, Брайан Дойл Мюррэй, Джули Бауэн, Зэк Духаме, Кэти Шлоссберг

О фильме:
Что делать, когда у вас слишком много дел, а времени катастрофически не хватает? Дуг Кинни находит ответ на этот вопрос - посылать по своим делам двойников, и дело с концом! Но решение задачи, казавшееся таким простым, оборачивается крупной проблемой - с двойников за все их проделки взятки, как говорится, гладки, а ему, настоящему Дугу Кинни, придется отдуваться за всех!



Страна: США / Columbia Pictures Corporation
Продолжительность: 01:52:03
Перевод: [Профессиональный (дублированный)

Файл
Качество: HDTVRip
Формат файла: AVI
Видео кодек: XviD
Аудио кодек: AC3
Видео: 720x304, 25,000 fps, 1412 kbps
Звук: AC3, 6 ch, 448 Kbps, 48.0 kHz


Общее
Полное имя : Multiplicity.1996.HDTVRip.avi
Формат : AVI
Формат/Информация : Audio Video Interleave
Размер файла : 1,46 Гбайт
Продолжительность : 1 ч. 52 м.
Общий поток : 1870 Кбит/сек
Программа кодирования : VirtualDubMod 1.5.10.3 | http://www.virtualdub-fr.org || (build 2550/release)
Библиотека кодирования : VirtualDubMod build 2550/release

Видео
Идентификатор : 0
Формат : MPEG-4 Visual
Профиль формата : Advanced Simple@L5
Параметр BVOP формата : 1
Параметр QPel формата : Нет
Параметр GMC формата : Без точки перехода
Параметр матрицы формата : Выборочная
Идентификатор кодека : XVID
Идентификатор кодека/Подсказка : XviD
Продолжительность : 1 ч. 52 м.
Битрейт : 1412 Кбит/сек
Ширина : 720 пикс.
Высота : 304 пикс.
Соотношение сторон : 2,35:1
Частота кадров : 25,000 кадр/сек
Цветовое пространство : YUV
Подвыборка цветности : 4:2:0
Битовая глубина : 8 бит
Тип развёртки : Прогрессивная
Метод сжатия : С потерями
Бит/(Пиксели*Кадры) : 0.258
Размер потока : 1,11 Гбайт (76%)
Библиотека кодирования : XviD 73

Аудио
Идентификатор : 1
Формат : AC-3
Формат/Информация : Audio Coding 3
Расширение режима : CM (complete main)
Идентификатор кодека : 2000
Продолжительность : 1 ч. 52 м.
Вид битрейта : Постоянный
Битрейт : 448 Кбит/сек
Канал(ы) : 6 канала(ов)
Расположение каналов : Front: L C R, Side: L R, LFE
Частота : 48,0 КГц
Битовая глубина : 16 бит
Метод сжатия : С потерями
Размер потока : 359 Мбайт (24%)
Выравнивание : Разделение по промежуткам
Продолжительность промежутка : 40 мс. (1,00 видеокадр)
Время предзагрузки промежутка : 500 ms


Релиз от: Leon-masl


_________________



реклама партнёра


Вернуться к началу
 Профиль Отправить личное сообщение  
 
   Похожие торренты   Автор   Торрент   Размер 
В этой теме нет новых непрочитанных сообщений. Девушка №6 / Girl 6 [драма, комедия, 1996] HDTVRip, Mvo

salma3

37 | 6

1.37 ГБ

В этой теме нет новых непрочитанных сообщений. Убрать перископ / Down Periscope [Комедия, 1996] HDTVRip, Mvo+Avo

salma3

689 | 22

1.37 ГБ

В этой теме нет новых непрочитанных сообщений. Беглецы / Fled [Боевик, криминал, комедия, 1996] HDTVRip, Dub+Avo

salma3

96 | 5

1.46 ГБ

В этой теме нет новых непрочитанных сообщений. Ягуар / Le Jaguar [Приключения, комедия, 1996] HDTVRip 720p, 3Mvo+Sub

salma3

184 | 27

3.91 ГБ

В этой теме нет новых непрочитанных сообщений. Два дня в долине / 2 Days in the Valley [Триллер, криминал, комедия, 1996] HDTVRip, Mvo+Avo

salma3

56 | 0

1.46 ГБ

В этой теме нет новых непрочитанных сообщений. Мои дорогие американцы / My Fellow Americans [комедия, приключения, 1996] HDTVRip, Dub

salma3

27 | 4

1.46 ГБ

В этой теме нет новых непрочитанных сообщений. Лепрекон 4: В космосе / Leprechaun 4: In Space [ужасы, фантастика, комедия, 1996] BDRemux, Mvo+Avo+Sub

salma3

1 | 4

18.81 ГБ


Начать новую тему Ответить на тему  [ 1 сообщение ] 




Для Мосгорсуда, Роскомнадзора и рекламодателей:: mosgorsud-torrent[собачка]yandex.ru