Торрент файл
скачать торрент магнет ссылка Добавлен: 12 авг 2015, 13:35
Размер: 1.46 ГБ
Сидеров: 28
Личеров: 3
Статус: (salma3)
Автор

СообщениеДобавлено: 12 авг 2015, 13:35 

В сети
Супермодератор
Аватара пользователя
Дата регистрации:
15 фев 2012, 16:44
Возраст: 28
Спасибо: 6567 / 2132
Сообщения: 43750
Год выхода: 1990
Жанр: боевик, триллер, комедия, криминал
Режиссер: Боб Кларк
В ролях: Дэн Эйкройд, Джин Хэкмен, Дом ДеЛуис, Ронни Кокс, Нэнси Трэвис, Роберт Проски, Пол Косло, Дик О’Нил, Ян Триска, Леон Риппи

О фильме:
Они должны были стать идеальной командой. Мак Стерн — крутой вашингтонский коп-ветеран, не стесняющийся пускать в ход пудовые кулаки и верный пистолет. И Эллис Филдинг — умница детектив, чьи дедуктивные таланты заставили бы покраснеть от зависти самого Шерлока Холмса. Но, как известно, в любой бочке меда есть цистерна дегтя. Мак любезен как разъяренный бультерьер, а у Эллиса… У Эллиса, мягко говоря, не все дома. В минуты стресса он впадает в легкий психоз, начиная воображать себя то одним, то другим популярным телегероем. И вот этой невменяемой парочке поручают расследование серии убийств, как-то связанных со зловещими тайнами Третьего Рейха! Такого цирка жители Вашингтона еще не видели!..



Страна: США, TriStar Pictures
Продолжительность: 01:30:19
Перевод: Профессиональный (двухголосый закадровый), Авторский (одноголосый закадровый) А. Михалев, С. Визгунов

Файл
Кодек: XViD
Качество: HDTVRip
Видео: 688x288, 25.000, 1725 kbps
Аудио 1: 48 kHz, Dolby Digital AC3 2.0, 192 kbps DVO
Аудио 2: 48 kHz, Dolby Digital AC3 2.0, 192 kbps А. Михалев
Аудио 3: 48 kHz, Dolby Digital AC3 2.0, 192 kbps С. Визгунов
Общее
Полное имя : Loose.Cannons.1990.HDTVRip.avi
Формат : AVI
Формат/Информация : Audio Video Interleave
Размер файла : 1,46 Гбайт
Продолжительность : 1 ч. 30 м.
Общий поток : 2321 Кбит/сек
Программа кодирования : VirtualDubMod 1.5.10.2 (build 2542/release)
Библиотека кодирования : VirtualDubMod build 2542/release

Видео
Идентификатор : 0
Формат : MPEG-4 Visual
Профиль формата : Advanced Simple@L5
Параметр BVOP формата : 1
Параметр QPel формата : Нет
Параметр GMC формата : Без точки перехода
Параметр матрицы формата : Выборочная
Идентификатор кодека : XVID
Идентификатор кодека/Подсказка : XviD
Продолжительность : 1 ч. 30 м.
Битрейт : 1725 Кбит/сек
Ширина : 688 пикс.
Высота : 288 пикс.
Соотношение сторон : 2,35:1
Частота кадров : 25,000 кадр/сек
Цветовое пространство : YUV
Подвыборка цветности : 4:2:0
Битовая глубина : 8 бит
Тип развёртки : Прогрессивная
Метод сжатия : С потерями
Бит/(Пиксели*Кадры) : 0.348
Размер потока : 1,09 Гбайт (74%)
Библиотека кодирования : XviD 73

Аудио #1
Идентификатор : 1
Формат : AC-3
Формат/Информация : Audio Coding 3
Расширение режима : CM (complete main)
Идентификатор кодека : 2000
Продолжительность : 1 ч. 30 м.
Вид битрейта : Постоянный
Битрейт : 192 Кбит/сек
Канал(ы) : 2 канала(ов)
Расположение каналов : Front: L R
Частота : 48,0 КГц
Битовая глубина : 16 бит
Метод сжатия : С потерями
Размер потока : 124 Мбайт (8%)
Выравнивание : Разделение по промежуткам
Продолжительность промежутка : 40 мс. (1,00 видеокадр)
Время предзагрузки промежутка : 500 ms

Аудио #2
Идентификатор : 2
Формат : AC-3
Формат/Информация : Audio Coding 3
Расширение режима : CM (complete main)
Идентификатор кодека : 2000
Продолжительность : 1 ч. 30 м.
Вид битрейта : Постоянный
Битрейт : 192 Кбит/сек
Канал(ы) : 2 канала(ов)
Расположение каналов : Front: L R
Частота : 48,0 КГц
Битовая глубина : 16 бит
Метод сжатия : С потерями
Размер потока : 124 Мбайт (8%)
Выравнивание : Разделение по промежуткам
Продолжительность промежутка : 40 мс. (1,00 видеокадр)
Время предзагрузки промежутка : 500 ms

Аудио #3
Идентификатор : 3
Формат : AC-3
Формат/Информация : Audio Coding 3
Расширение режима : CM (complete main)
Идентификатор кодека : 2000
Продолжительность : 1 ч. 30 м.
Вид битрейта : Постоянный
Битрейт : 192 Кбит/сек
Канал(ы) : 2 канала(ов)
Расположение каналов : Front: L R
Частота : 48,0 КГц
Битовая глубина : 16 бит
Метод сжатия : С потерями
Размер потока : 124 Мбайт (8%)
Выравнивание : Разделение по промежуткам
Продолжительность промежутка : 40 мс. (1,00 видеокадр)
Время предзагрузки промежутка : 500 ms


Релиз от: Leon-masl


_________________
Проголосуй за трекер Открытый торрент трекер - RUS-MEDIA.ORG

Проголосуй Открытый торрент трекер - RUS-MEDIA.ORG



реклама партнёра


Вернуться к началу
 Профиль Отправить личное сообщение  
 
   Похожие торренты   Автор   Торрент   Размер 
В этой теме нет новых непрочитанных сообщений. Любовь и 45 калибр / Love and a .45 [триллер, криминал, 1994] DVDRip, Dvo

salma3

141 | 29

1.49 ГБ

В этой теме нет новых непрочитанных сообщений. Птичка На Проводе / Bird On A Wire [боевик, триллер, комедия, 1990] HDTVRip, Mvo

salma3

174 | 12

1.45 ГБ

В этой теме нет новых непрочитанных сообщений. Новичок / The Rookie [Боевик, триллер, драма, комедия, криминал, 1990] BDRip 720p, Dub+Mvo+3Avo+Sub

salma3

79 | 6

7.21 ГБ

В этой теме нет новых непрочитанных сообщений. Новичок / The Freshman [комедия, криминал, 1990] HDTVRip, Mvo+Dub

salma3

141 | 6

1.46 ГБ

В этой теме нет новых непрочитанных сообщений. Другие 48 часов / Another 48 Hrs [боевик, триллер, драма, 1990] HDTVRip-AVC, Dvo [НТВ+]

salma3

35 | 6

745.9 МБ

В этой теме нет новых непрочитанных сообщений. Ордер на смерть / Death Warrant [боевик, триллер, криминал, 1990] HDRip-AVC, Mvo [НТВ+]

salma3

66 | 13

746.21 МБ

В этой теме нет новых непрочитанных сообщений. Молочные узы / Doodh Ka Karz [Боевик, триллер, мелодрама, криминал, 1990] DVDRip, Avo

salma3

0 | 0

2.05 ГБ


Начать новую тему Ответить на тему  [ 1 сообщение ] 




Для Мосгорсуда, Роскомнадзора и рекламодателей:: mosgorsud-torrent[собачка]yandex.ru