Торрент файл
скачать торрент магнет ссылка Добавлен: 04 авг 2015, 22:55
Размер: 1.46 ГБ
Сидеров: 82
Личеров: 4
Статус: (salma3)
Автор

СообщениеДобавлено: 04 авг 2015, 22:55 

Не в сети
Супермодератор
Аватара пользователя
Дата регистрации:
15 фев 2012, 16:44
Возраст: 28
Спасибо: 6593 / 2145
Сообщения: 44209
Скорость 2: Контроль над круизом / Speed 2: Cruise Control

Год выхода: 1997
Жанр: боевик, триллер
Режиссер: Ян де Бонт / Jan de Bont

В ролях: Сандра Буллок, Джейсон Патрик, Уиллем Дефо, Темуэра Моррисон, Брайан МакКарди, Кристин Фиркинс, Майкл Дж. Хэгерти, Коллин Кэмп, Лоис Чайлз, Френсис Гуинан

О фильме:
Энни предупредила своего нового ухажера, что на ее долю хватит приключений, подобных тому, что ей пришлось пережить в первом фильме, и тот соврал, что работает пляжным полицейским, не разрешая молодежи курить и мусорить.
Очень скоро правда всплывает на поверхность и она узнает, что на самом деле парень работает в спецотряде и выполняет чрезвычайно опасные задания. Чтобы загладить свою вину, он приглашает Энни в развлекательную поездку на роскошном круизном лайнере по Карибскому морю.Как на грех на этом лайнере оказывается слегка свихнувшийся компьютерщик, которому фирма, построившая лайнер, не начислила в полной мере зарплату. Систему управления он знает как свои пять пальцев и терпеть произвол акул капитализма не намерен…

Страна: США
Продолжительность: 02:05:10
Перевод: Профессиональный (многоголосый закадровый) [Blu-ray EUR]

Файл
Качество: HDRip
Формат файла: AVI
Видео кодек: XviD
Аудио кодек: AC3
Видео: 720x304, 23,976 fps, XviD build 73 ~ 1472 kbps
Звук: 48 kHz, AC3, 2ch, ~192.00 kbps


Общее
Полное имя : Skorost.2.Kontrol.nad.kruizom.1997.HDRip.avi
Формат : AVI
Формат/Информация : Audio Video Interleave
Размер файла : 1,46 Гбайт
Продолжительность : 2 ч. 5 м.
Общий поток : 1674 Кбит/сек
Программа кодирования : VirtualDubMod 1.5.10.3 | http://www.virtualdub-fr.org || (build 2550/release)
Библиотека кодирования : VirtualDubMod build 2550/release

Видео
Идентификатор : 0
Формат : MPEG-4 Visual
Профиль формата : Advanced Simple@L5
Параметр BVOP формата : 2
Параметр QPel формата : Нет
Параметр GMC формата : Без точки перехода
Параметр матрицы формата : Выборочная
Идентификатор кодека : XVID
Идентификатор кодека/Подсказка : XviD
Продолжительность : 2 ч. 5 м.
Битрейт : 1472 Кбит/сек
Ширина : 720 пикс.
Высота : 304 пикс.
Соотношение сторон : 2,35:1
Частота кадров : 23,976 кадр/сек
Цветовое пространство : YUV
Подвыборка цветности : 4:2:0
Битовая глубина : 8 бит
Тип развёртки : Прогрессивная
Метод сжатия : С потерями
Бит/(Пиксели*Кадры) : 0.281
Размер потока : 1,29 Гбайт (88%)
Библиотека кодирования : XviD 73

Аудио
Идентификатор : 1
Формат : AC-3
Формат/Информация : Audio Coding 3
Расширение режима : CM (complete main)
Идентификатор кодека : 2000
Продолжительность : 2 ч. 5 м.
Вид битрейта : Постоянный
Битрейт : 192 Кбит/сек
Канал(ы) : 2 канала(ов)
Расположение каналов : Front: L R
Частота : 48,0 КГц
Битовая глубина : 16 бит
Метод сжатия : С потерями
Размер потока : 172 Мбайт (11%)
Выравнивание : Разделение по промежуткам
Продолжительность промежутка : 42 мс. (1,00 видеокадр)
Время предзагрузки промежутка : 500 ms


Релиз от: Leon-masl


_________________
Проголосуй за трекер Открытый торрент трекер - RUS-MEDIA.ORG

Проголосуй Открытый торрент трекер - RUS-MEDIA.ORG



реклама партнёра


Вернуться к началу
 Профиль Отправить личное сообщение  
 
   Похожие торренты   Автор   Торрент   Размер 
В этой теме нет новых непрочитанных сообщений. Скорость / Speed [боевик, триллер, 1994] HDRip, Mvo

salma3

70 | 6

1.45 ГБ

В этой теме нет новых непрочитанных сообщений. Контроль земли / Ground Control [Боевик, триллер, драма, 1998] WEB-DL 720p, Dvo

salma3

137 | 66

3.21 ГБ

В этой теме нет новых непрочитанных сообщений. Контроль / Control [триллер, криминал, драма, 2004] BDRip 720p, Mvo

salma3

28 | 3

4.36 ГБ

В этой теме нет новых непрочитанных сообщений. Carter Cruise - Control Issues (2017) SiteRip

salma3

25 | 3

477.66 МБ

В этой теме нет новых непрочитанных сообщений. Скорость: Автобус 657 / Heist (Скотт Манн) [боевик, триллер, 2015] HDRip, Dub [iTunes]

Dracon

379 | 8

1.37 ГБ

В этой теме нет новых непрочитанных сообщений. Теряя контроль / She's Lost Control (Аня Марквардт/ Anja Marquardt) [2014г., драма, DVDRip] Sub

Alfredovich

133 | 12

1.46 ГБ

В этой теме нет новых непрочитанных сообщений. DC. Невероятная скорость. Истребители / Massive Speed: Fighter aircraft (Том Горхем) [2005, документальный, авиация, история, SATRip] VO

salma3

0 | 1

261.67 МБ


Начать новую тему Ответить на тему  [ 1 сообщение ] 




Для Мосгорсуда, Роскомнадзора и рекламодателей:: mosgorsud-torrent[собачка]yandex.ru