Торрент файл
скачать торрент магнет ссылка Добавлен: 28 июл 2015, 11:21
Размер: 1.46 ГБ
Сидеров: 96
Личеров: 5
Автор

СообщениеДобавлено: 28 июл 2015, 11:21 

В сети
Супермодератор
Аватара пользователя
Дата регистрации:
15 фев 2012, 16:44
Возраст: 27
Спасибо: 5148 / 2090
Сообщения: 17541
Беглецы / Fled

Год выхода: 1996
Жанр: Боевик, криминал, комедия
Режиссер: Кевин Хукс

В ролях: Лоренс Фишбёрн, Стивен Болдуин, Уилл Пэттон, Сальма Хайек, Роберт Джон Бёрк, Роберт Хукс, Виктор Риверс, Дэвид Дьюкс, Кен Дженкинс, Майкл Нэйдер

О фильме:
Пайпер - крепкий орешек, Додж - компьютерный хакер, связь которого с 25 миллионами украденных долларов как магнит притягивает толпы наемных убийц и коррумпированных государственных чиновников. Внезапно действие принимает неожиданный оборот...
Единственное, что может спасти беглецов, это дискета, хранящая секрет дерзкого компьютерного взлома. В опасные поиски включаются: привлекательная молодая женщина, злокозненный судебный исполнитель, честный полицейский и кубинская мафия!



Страна: США, MGM
Продолжительность: 01:33:45
Перевод1: Профессиональный (полное дублирование)
Перевод2: Авторский (одноголосый) [Павел Санаев]

Файл
Качество: HDTVRip
Формат файла: AVI
Видео кодек: XviD
Аудио кодек: AC3
Видео: 704x400, 25,000 fps, 1577 kbps
Аудио 1: 48 kHz, AC3 Dolby Digital, 3/2 (L,C,R,l,r) + LFE ch, ~448.00 kbps, [дубляж]
Аудио 2: 48 kHz, AC3 Dolby Digital, 2/0 (L,R) ch, ~192.00 kbps. [Санаев]


Общее
Полное имя : Fled.1996.HDTVRip.avi
Формат : AVI
Формат/Информация : Audio Video Interleave
Размер файла : 1,46 Гбайт
Продолжительность : 1 ч. 33 м.
Общий поток : 2232 Кбит/сек
Программа кодирования : VirtualDubMod 1.5.10.2 (build 2542/release)
Библиотека кодирования : VirtualDubMod build 2542/release

Видео
Идентификатор : 0
Формат : MPEG-4 Visual
Профиль формата : Advanced Simple@L5
Параметр BVOP формата : 2
Параметр QPel формата : Нет
Параметр GMC формата : Без точки перехода
Параметр матрицы формата : Выборочная
Идентификатор кодека : XVID
Идентификатор кодека/Подсказка : XviD
Продолжительность : 1 ч. 33 м.
Битрейт : 1577 Кбит/сек
Ширина : 704 пикс.
Высота : 400 пикс.
Соотношение сторон : 16:9
Частота кадров : 25,000 кадр/сек
Цветовое пространство : YUV
Подвыборка цветности : 4:2:0
Битовая глубина : 8 бит
Тип развёртки : Прогрессивная
Метод сжатия : С потерями
Бит/(Пиксели*Кадры) : 0.224
Размер потока : 1,03 Гбайт (71%)
Библиотека кодирования : XviD 73

Аудио #1
Идентификатор : 1
Формат : AC-3
Формат/Информация : Audio Coding 3
Расширение режима : CM (complete main)
Идентификатор кодека : 2000
Продолжительность : 1 ч. 33 м.
Вид битрейта : Постоянный
Битрейт : 448 Кбит/сек
Канал(ы) : 6 канала(ов)
Расположение каналов : Front: L C R, Side: L R, LFE
Частота : 48,0 КГц
Битовая глубина : 16 бит
Метод сжатия : С потерями
Размер потока : 300 Мбайт (20%)
Выравнивание : Разделение по промежуткам
Продолжительность промежутка : 40 мс. (1,00 видеокадр)
Время предзагрузки промежутка : 500 ms

Аудио #2
Идентификатор : 2
Формат : AC-3
Формат/Информация : Audio Coding 3
Расширение режима : CM (complete main)
Идентификатор кодека : 2000
Продолжительность : 1 ч. 33 м.
Вид битрейта : Постоянный
Битрейт : 192 Кбит/сек
Канал(ы) : 2 канала(ов)
Расположение каналов : Front: L R
Частота : 48,0 КГц
Битовая глубина : 16 бит
Метод сжатия : С потерями
Размер потока : 129 Мбайт (9%)
Выравнивание : Разделение по промежуткам
Продолжительность промежутка : 40 мс. (1,00 видеокадр)
Время предзагрузки промежутка : 500 ms


Релиз от: Leon-masl


_________________



реклама партнёра


Вернуться к началу
 Профиль Отправить личное сообщение  
 
   Похожие торренты   Автор   Торрент   Размер 
В этой теме нет новых непрочитанных сообщений. Беглецы / Fled [Боевик, 1996] BDRip, Avo

salma3

51 | 14

1.46 ГБ

В этой теме нет новых непрочитанных сообщений. Беглецы / Fled [боевик, драма, мелодрама, 1996] BDRip 720p, Dub

salma3

21 | 6

9.23 ГБ

В этой теме нет новых непрочитанных сообщений. Беглецы / Fugitives / Les fugitifs [комедия, криминал, 1986] BDRip, Dub [СССР]

salma3

137 | 12

1.45 ГБ

В этой теме нет новых непрочитанных сообщений. Два дня в долине / 2 Days in the Valley [Триллер, криминал, комедия, 1996] HDTVRip, Mvo+Avo

salma3

56 | 0

1.46 ГБ

В этой теме нет новых непрочитанных сообщений. Мистер Крутой / Yat goh ho yan [боевик, комедия, криминал, 1996] WEB-DL 1080p, Mvo

salma3

6 | 2

4.36 ГБ

В этой теме нет новых непрочитанных сообщений. Беглецы / Скрывающиеся / Hidden Away [триллер, драма, детектив, 2013] HDTVRip, Mvo

salma3

112 | 11

1.37 ГБ

В этой теме нет новых непрочитанных сообщений. Месть Ястреба / Hawk's Vengeance [Боевик, 1996] HDTVRip 720p, Avo

salma3

14 | 3

2.98 ГБ


Начать новую тему Ответить на тему  [ 1 сообщение ] 




Для Мосгорсуда, Роскомнадзора и рекламодателей:: mosgorsud-torrent[собачка]yandex.ru