Торрент файл
скачать торрент магнет ссылка Добавлен: 11 июл 2015, 16:44
Размер: 1.46 ГБ
Сидеров: 304
Личеров: 7
Статус: (salma3)
Автор

СообщениеДобавлено: 11 июл 2015, 16:44 

Не в сети
Зам. Админа
Аватара пользователя
Дата регистрации:
02 дек 2010, 12:39
Спасибо: 12461 / 214
Сообщения: 27968
Год выхода: 2015
Жанр: Боевик, триллер, драма, криминал, детектив
Режиссер: Жауме Коллет-Серра
В ролях: Лиам Нисон, Юэль Киннаман, Коммон, Эд Харрис, Бойд Холбрук, Брюс МакГилл, Дженезис Родригез, Винсент Д`Онофрио, Луис Смит, Бо Напп, Патриция Кэлембер, Дэниэл Стюарт-Шерман, Джеймс Мартинес, Радивойе Буквич, Тони Наумовски, Лиза Бренч, Холт МакКэллани, Обри Джозеф, Джулия Чичиари, Керрингтон Мейер

О фильме:
Бруклинский гангстер и наемный убийца со стажем Джимми Конлон, некогда известный как Могильщик, знавал и лучшие дни. Давнего друга главы мафиозного клана Шона Магуайера в его пятьдесят пять преследуют грехи прошлого и настырный полицейский, который все эти тридцать лет всего на шаг отставал от Джимми. И, похоже, единственное свое утешение Джимми находит на дне бутылки виски. Но когда мишенью мафии становится его сын Майк, с которым он давным-давно потерял связь, Джимми должен сделать выбор между преступным кланом и своей настоящей семьей, которую он оставил далеко в прошлом. Он пускается в бега вместе с Майком, и единственная возможность искупить вину за ошибки прошлого – уберечь сына от той судьбы, которая, он уверен, предначертана ему, – взгляд в лицо смерти через дуло пистолета. Спрятаться негде, и у Джимми есть всего одна ночь, чтобы понять, кому стоит хранить верность и сможет ли он все исправить.



Страна: США
Студия: Energy Entertainment, RatPac-Dune Entertainment, Vertigo Entertainment
Продолжительность: 01:54:22
Перевод: Дублированный [BD CEE]
Субтитры: Русские (полные + форс.), Английские (полные)

Качество: BDRip-AVC (Run.All.Night.2015.BluRay.1080p.)
Формат: MKV
Видео кодек: x264
Аудио кодек: AС3
Видео: 1024x426 (2,40:1), 23,976 fps, x264 ~ 1632 kbps avg, 0.156 bit/pixel
Аудио: 48,0 kHz, Audio Coding 3, 2 ch, ~192 kbps avg

Общее
Уникальный идентификатор : 210963070520497248628384448898226166227 (0x9EB6026C76CC7D319F51B37B0A5F99D3)
Полное имя : D:ВидеоRun.All.Night.2015. BDRip-AVC 1.46 by Vovan366(ExKinoRay)..mkv
Формат : Matroska
Версия формата : Version 4 / Version 2
Размер файла : 1,46 Гбайт
Продолжительность : 1 ч. 54 м.
Общий поток : 1826 Кбит/сек
Название фильма : Run.All.Night.2015. BDRip-AVC by Vovan366(ExKinoRay)
Дата кодирования : UTC 2015-07-11 06:33:00
Программа кодирования : mkvmerge v8.1.0 ('Psychedelic Postcard') 64bit
Библиотека кодирования : libebml v1.3.1 + libmatroska v1.4.2
DURATION : 01:53:36.017000000
NUMBER_OF_FRAMES : 1302
NUMBER_OF_BYTES : 47022
_STATISTICS_WRITING_APP : mkvmerge v8.1.0 ('Psychedelic Postcard') 64bit
_STATISTICS_WRITING_DATE_UTC : 2015-07-11 06:33:00
_STATISTICS_TAGS : BPS DURATION NUMBER_OF_FRAMES NUMBER_OF_BYTES

Видео
Идентификатор : 1
Формат : AVC
Формат/Информация : Advanced Video Codec
Профиль формата : High@L4.1
Параметр CABAC формата : Да
Параметр ReFrames формата : 9 кадров
Идентификатор кодека : V_MPEG4/ISO/AVC
Продолжительность : 1 ч. 54 м.
Битрейт : 1632 Кбит/сек
Ширина : 1024 пикселя
Высота : 426 пикселей
Соотношение сторон : 2,40:1
Режим частоты кадров : Постоянный
Частота кадров : 23,976 кадра/сек
Цветовое пространство : YUV
Субдискретизация насыщенности : 4:2:0
Битовая глубина : 8 бит
Тип развёртки : Прогрессивная
Бит/(Пиксели*Кадры) : 0.156
Размер потока : 1,28 Гбайт (87%)
Заголовок : by Vovan366(ExKinoRay)
Библиотека кодирования : x264 core 130 r2273 b3065e6
Настройки программы : cabac=1 / ref=9 / deblock=1:-2:-2 / analyse=0x3:0x113 / me=umh / subme=10 / psy=1 / psy_rd=1.00:0.15 / mixed_ref=1 / me_range=32 / chroma_me=1 / trellis=2 / 8x8dct=1 / cqm=0 / deadzone=21,11 / fast_pskip=1 / chroma_qp_offset=-3 / threads=6 / lookahead_threads=1 / sliced_threads=0 / nr=0 / decimate=0 / interlaced=0 / bluray_compat=0 / constrained_intra=0 / bframes=9 / b_pyramid=2 / b_adapt=2 / b_bias=0 / direct=3 / weightb=1 / open_gop=0 / weightp=2 / keyint=240 / keyint_min=23 / scenecut=40 / intra_refresh=0 / rc=2pass / mbtree=0 / bitrate=1632 / ratetol=1.0 / qcomp=0.60 / qpmin=0 / qpmax=69 / qpstep=4 / cplxblur=20.0 / qblur=0.5 / ip_ratio=1.40 / pb_ratio=1.30 / aq=1:1.00
Default : Да
Forced : Нет

Аудио
Идентификатор : 2
Формат : AC-3
Формат/Информация : Audio Coding 3
Расширение режима : CM (complete main)
Параметр Endianness формата : Big
Идентификатор кодека : A_AC3
Продолжительность : 1 ч. 54 м.
Вид битрейта : Постоянный
Битрейт : 192 Кбит/сек
Каналы : 2 канала
Расположение каналов : Front: L R
Частота : 48,0 КГц
Битовая глубина : 16 бит
Метод сжатия : С потерями
Размер потока : 157 Мбайт (11%)
Заголовок : Dub | DD 2.0 @ 192 kbps - Blu-Ray CEE
Язык : Russian
Default : Да
Forced : Нет

Текст #1
Идентификатор : 3
Формат : UTF-8
Идентификатор кодека : S_TEXT/UTF8
Идентификатор кодека/Информация : UTF-8 Plain Text
Заголовок : Forced
Язык : Russian
Default : Да
Forced : Нет

Текст #2
Идентификатор : 4
Формат : UTF-8
Идентификатор кодека : S_TEXT/UTF8
Идентификатор кодека/Информация : UTF-8 Plain Text
Язык : Russian
Default : Нет
Forced : Нет

Текст #3
Идентификатор : 5
Формат : UTF-8
Идентификатор кодека : S_TEXT/UTF8
Идентификатор кодека/Информация : UTF-8 Plain Text
Язык : English
Default : Нет
Forced : Нет

Меню
00:00:00.000 : en:Chapter 01
00:09:02.750 : en:Chapter 02
00:20:32.231 : en:Chapter 03
00:29:24.220 : en:Chapter 04
00:41:17.308 : en:Chapter 05
00:50:29.776 : en:Chapter 06
01:01:35.900 : en:Chapter 07
01:10:56.585 : en:Chapter 08
01:19:52.078 : en:Chapter 09
01:34:14.398 : en:Chapter 10
01:39:08.609 : en:Chapter 11
01:48:38.386 : en:Chapter 12








реклама партнёра


Вернуться к началу
 Профиль  
 
   Похожие торренты   Автор   Торрент   Размер 
В этой теме нет новых непрочитанных сообщений. Ночной беглец / Run All Night (Хауме Кольет-Серра) [боевик, триллер, драма, криминал, детектив, 2015] BDRip, Dub [Лицензия]

Dracon

4 | 0

2.18 ГБ

В этой теме нет новых непрочитанных сообщений. Ночной беглец / Run All Night (Хауме Кольет-Серра) [боевик, триллер, драма, криминал, детектив, 2015] BDRip, Dub [Лицензия]

Dracon

2 | 0

1.46 ГБ

В этой теме нет новых непрочитанных сообщений. Ночной беглец / Run All Night (Хауме Кольет-Серра) [боевик, триллер, драма, криминал, детектив, 2015] BDRip 720p, Dub+Avo+Sub [Лицензия]

Dracon

1 | 0

10.12 ГБ

В этой теме нет новых непрочитанных сообщений. Ночной беглец / Run All Night (Хауме Кольет-Серра) [боевик, триллер, драма, криминал, детектив, 2015] BDRip 1080p, Dub+Avo+Sub [Лицензия]

Dracon

2 | 0

15.56 ГБ

В этой теме нет новых непрочитанных сообщений. Ночной беглец / Run All Night (Хауме Кольет-Серра) [боевик, триллер, драма, криминал, детектив, 2015] BDRip 1080p, Dub [iTunes]

Dracon

1103 | 143

9.2 ГБ

В этой теме нет новых непрочитанных сообщений. Ночной беглец / Run All Night (Хауме Кольет-Серра) [боевик, триллер, драма, криминал, детектив, 2015] BDRip 720p, Dub [iTunes]

Dracon

1100 | 84

4.37 ГБ

В этой теме нет новых непрочитанных сообщений. Ночной беглец / Run All Night (Хауме Кольет-Серра) [боевик, триллер, драма, криминал, детектив, 2015] HDRip, Dub [iTunes]

Dracon

0 | 0

2.05 ГБ


Начать новую тему Ответить на тему  [ 1 сообщение ] 




Для Мосгорсуда, Роскомнадзора и рекламодателей:: mosgorsud-torrent[собачка]yandex.ru
cron