Торрент файл
скачать торрент магнет ссылка Добавлен: 07 июл 2015, 11:15
Размер: 1.46 ГБ
Сидеров: 150
Личеров: 8
Статус: (salma3)
Автор

СообщениеДобавлено: 07 июл 2015, 11:15 

Не в сети
Супермодератор
Аватара пользователя
Дата регистрации:
15 фев 2012, 16:44
Возраст: 28
Спасибо: 7224 / 2147
Сообщения: 67983
Эволюция Борна / The Bourne Legacy

Год выпуска: 2012
Жанр: Боевик, Триллер, Детектив
Режиссер: Тони Гилрой

Актеры: Джереми Реннер, Рейчел Вайс, Эдвард Нортон, Джоан Аллен, Альберт Финни, Скотт Гленн, Стейси Кич, Донна Мерфи, Майкл Чернус, Кори Столл

Описание:
Действие разворачивается параллельно событиям фильма Ультиматум Борна. Выясняется, что одновременно с проектом «Блэкбрайар» разрабатывался проект Разведывательного управления министерства обороны США «Аутком», который отличался от проекта ЦРУ «Тредстоун» тем, что агентам давали специальные таблетки-стимуляторы (синие - для мозга, зелёные - для мышц).
Минус заключался в том, что эти пилюли нужно было принимать регулярно, в противном случае агент начинал физически и умственно деградировать и в итоге умирал. Одним из агентов был юноша Кеннет Джеймс Китсом, который официально считается погибшим на войне. После успешной подготовки он получает новое имя «Аарон Кросс» и становится пятым полевым агентом...



Производство: США
Продолжительность: 02:14:54
Перевод: Авторский (одноголосый, закадровый) [Ю.Живов]

Файл
Качество: HDRip
Формат файла: AVI
Видео кодек: XviD
Аудио кодек: AC3
Видео: Xvid, 688x288 (2.35:1), ~23.976 fps, 1 091 Kbps (0.230 bit/pixel)
Аудио: AC3, 6 ch, 448 Kbps, CBR


Релиз от: FAGOT100

Формат : AVI
Формат/Информация : Audio Video Interleave
Размер файла : 1,46 Гбайт
Продолжительность : 2 ч. 14 м.
Общий поток : 1549 Кбит/сек
Программа кодирования : VirtualDubMod 1.5.10.3 | http://www.virtualdub-fr.org || (build 2550/release)
Библиотека кодирования : VirtualDubMod build 2550/release

Видео
Идентификатор : 0
Формат : MPEG-4 Visual
Профиль формата : Advanced Simple@L5
Параметр BVOP формата : 2
Параметр QPel формата : Нет
Параметр GMC формата : Без точки перехода
Параметр матрицы формата : Выборочная
Идентификатор кодека : XVID
Идентификатор кодека/Подсказка : XviD
Продолжительность : 2 ч. 14 м.
Битрейт : 1091 Кбит/сек
Ширина : 688 пикселей
Высота : 288 пикселей
Соотношение сторон : 2,40:1
Частота кадров : 23,976 кадра/сек
Цветовое пространство : YUV
Субдискретизация насыщенности : 4:2:0
Битовая глубина : 8 бит
Тип развёртки : Прогрессивная
Метод сжатия : С потерями
Бит/(Пиксели*Кадры) : 0.230
Размер потока : 1,03 Гбайт (70%)
Библиотека кодирования : XviD 73

Аудио
Идентификатор : 1
Формат : AC-3
Формат/Информация : Audio Coding 3
Расширение режима : CM (complete main)
Параметр Endianness формата : Big
Идентификатор кодека : 2000
Продолжительность : 2 ч. 14 м.
Вид битрейта : Постоянный
Битрейт : 448 Кбит/сек
Каналы : 6 каналов
Расположение каналов : Front: L C R, Side: L R, LFE
Частота : 48,0 КГц
Битовая глубина : 16 бит
Метод сжатия : С потерями
Размер потока : 432 Мбайт (29%)
Выравнивание : Разделение по промежуткам
Продолжительность промежутка : 42 мс. (1,00 видеокадр)
Время предзагрузки промежутка : 500 мс.



_________________
Проголосуй за трекер Открытый торрент трекер - RUS-MEDIA.ORG

Проголосуй Открытый торрент трекер - RUS-MEDIA.ORG


Вернуться к началу
 Профиль Отправить личное сообщение  
 
   Похожие торренты   Автор   Торрент   Размер 
В этой теме нет новых непрочитанных сообщений. Эволюция Борна / The Bourne Legacy [Боевик, триллер, детектив, 2012] BDRemux, Dub

salma3

2 | 3

51.63 ГБ

В этой теме нет новых непрочитанных сообщений. Превосходство Борна / The Bourne Supremacy [боевик, триллер, детектив, 2004] WEB-DL 1080p, Dub [Open Matte]

salma3

0 | 0

14.44 ГБ

В этой теме нет новых непрочитанных сообщений. Превосходство Борна / The Bourne Supremacy [боевик, триллер, детектив, 2004] WEB-DLRip-AVC, Dub [Open Matte]

salma3

0 | 0

2.18 ГБ

В этой теме нет новых непрочитанных сообщений. Идентификация Борна / The Bourne Identity [боевик, триллер, детектив, 2002] Hybrid 1080p, Dub [Open Matte]

salma3

0 | 0

19.14 ГБ

В этой теме нет новых непрочитанных сообщений. Превосходство Борна / The Bourne Supremacy [Боевик, триллер, криминал, 2004] BDRemux 1080p, Dub

salma3

0 | 10

26.34 ГБ

В этой теме нет новых непрочитанных сообщений. Ультиматум Борна / The Bourne Ultimatum [Боевик, триллер, криминал, 2007] BDRemux 1080p, Dub

salma3

6 | 26

29.89 ГБ

В этой теме нет новых непрочитанных сообщений. Идентификация Борна / The Bourne Identity [Боевик, триллер, криминал, 2002] BDRemux 1080p, Dub

salma3

9 | 28

30.42 ГБ


Начать новую тему Ответить на тему  [ 1 сообщение ] 




Для Мосгорсуда, Роскомнадзора и рекламодателей:: mosgorsud-torrent[собачка]yandex.ru
cron