Торрент файл
скачать торрент магнет ссылка Добавлен: 06 июл 2015, 11:35
Размер: 1.37 ГБ
Сидеров: 6
Личеров: 0
Статус: (salma3)
Автор

СообщениеДобавлено: 06 июл 2015, 11:35 

Не в сети
Зам. Админа
Аватара пользователя
Дата регистрации:
02 дек 2010, 12:39
Спасибо: 12461 / 214
Сообщения: 27968
Год выхода: 2015
Жанр: Боевик, триллер, криминал, приключения
Режиссер: Киони Ваксман
В ролях: Стивен Сигал, Байрон Манн, Ховард Делл, Адина Стетцу, Винни Джонс, Джош Барнетт, Мария Бата, Серджиу Костаке, Джордж Ремис

  О фильме:В роли наёмного убийцы выступает практически легенда боевого кино – Стивен Сигал. На этот раз он работает не в одиночку, а с напарником. Не менее крутым и респектабельным мужчиной. Впереди героев ждёт очередное задание от государства, выполнить которое кажется совсем простым делом. Вламываясь в особняк наркодиллера, убийцы убирают его охрану и самого негодяя. После успешно проведённого задания герой Сигала, отправляется отдохнуть в бар и пропустить стаканчик, второй. Относительно спокойное и умеренное времяпровождение мужчины нарушает появление симпатичной девушки. Она просит о помощи в попытках вырваться из лап преступников. Как настоящий джентльмен, главный герой не может остаться в стороне, и практически сразу приходит бедняжке на помощь, при этом уложив в баре, около десятка человек. На этом спасение таинственной незнакомки не заканчивается. Персонаж Стивена перешёл дорогу крупному мафиози. Именно от него бежит хрупкая молодая особа. Включая политические связи, и гангстерские рычаги, преступный король хочет вернуть себе беглянку. Но для этого ему нужно добраться к наёмному убийце. Мужчина не останется в долгу и сам начнёт охоту за крупным мафиози.

Качество: HDRip
Видео: XviD, 720x400, 25 fps, 1594 Kbit/s
Аудио: Русский: АС3, 48000 Hz, 2 каналов, 192 kbit/s
Аудио: Английский: АС3, 48000 Hz, 6 каналов, 384 kbit/s
Продолжительность: 01:31:27
Перевод: Любительский (одноголосый) [Хихикающий доктор]
Скачать: Сэплм

General
Complete name                            : D:Naemnik.SS.2015.L1.HDRip.avi
Format                                   : AVI
Format/Info                              : Audio Video Interleave
File size                                : 1.37 GiB
Duration                                 : 1h 29mn
Overall bit rate                         : 2 184 Kbps
Writing application                      : VirtualDubMod 1.5.10.3 | http://www.virtualdub-fr.org || (build 2550/release)

Video
ID                                       : 0
Format                                   : MPEG-4 Visual
Format profile                           : Simple@L5
Format settings, BVOP                    : No
Format settings, QPel                    : No
Format settings, GMC                     : No warppoints
Format settings, Matrix                  : Default (H.263)
Codec ID                                 : XVID
Codec ID/Hint                            : XviD
Duration                                 : 1h 29mn
Bit rate                                 : 1 594 Kbps
Width                                    : 720 pixels
Height                                   : 400 pixels
Display aspect ratio                     : 16:9
Frame rate                               : 25.000 fps
Color space                              : YUV
Chroma subsampling                       : 4:2:0
Bit depth                                : 8 bits
Scan type                                : Progressive
Compression mode                         : Lossy
Bits/(Pixel*Frame)                       : 0.221
Stream size                              : 1.00 GiB (73%)
Writing library                          : Lavc56.19.100

Audio #1
ID                                       : 1
Format                                   : AC-3
Format/Info                              : Audio Coding 3
Mode extension                           : CM (complete main)
Format settings, Endianness              : Big
Codec ID                                 : 2000
Duration                                 : 1h 29mn
Bit rate mode                            : Constant
Bit rate                                 : 192 Kbps
Channel(s)                               : 2 channels
Channel positions                        : Front: L R
Sampling rate                            : 44.1 KHz
Bit depth                                : 16 bits
Compression mode                         : Lossy
Stream size                              : 124 MiB (9%)
Alignment                                : Split accross interleaves
Interleave, duration                     : 40 ms (1.00 video frame)
Interleave, preload duration             : 500 ms

Audio #2
ID                                       : 2
Format                                   : AC-3
Format/Info                              : Audio Coding 3
Mode extension                           : CM (complete main)
Format settings, Endianness              : Big
Codec ID                                 : 2000
Duration                                 : 1h 29mn
Bit rate mode                            : Constant
Bit rate                                 : 384 Kbps
Channel(s)                               : 6 channels
Channel positions                        : Front: L C R, Side: L R, LFE
Sampling rate                            : 48.0 KHz
Bit depth                                : 16 bits
Compression mode                         : Lossy
Stream size                              : 247 MiB (18%)
Alignment                                : Split accross interleaves
Interleave, duration                     : 40 ms (1.00 video frame)
Interleave, preload duration             : 500 ms








реклама партнёра


Вернуться к началу
 Профиль  
 
   Похожие торренты   Автор   Торрент   Размер 
В этой теме нет новых непрочитанных сообщений. Наёмник: Отпущение грехов / Absolution (Киони Ваксман) [Боевик, триллер, криминал, приключения, 2015] BDRip 720p, avo

Dracon

514 | 36

3.96 ГБ

В этой теме нет новых непрочитанных сообщений. Наёмник: Отпущение грехов / Absolution (Киони Ваксман) [Боевик, триллер, криминал, приключения, 2015] BDRip 1080p, avo

Dracon

490 | 114

7.75 ГБ

В этой теме нет новых непрочитанных сообщений. Наёмник: Отпущение грехов / Absolution [боевик, триллер, криминал, приключения, 2015] BDRip, ENG

salma3

297 | 40

1.35 ГБ

В этой теме нет новых непрочитанных сообщений. Город грехов 2: Женщина, ради которой стоит убивать / Sin City: A Dame to Kill For [боевик, триллер, криминал, 2014] HDRip-AVC, Dub [Лицезия]

Dracon

858 | 27

2.05 ГБ

В этой теме нет новых непрочитанных сообщений. Город грехов 2: Женщина, ради которой стоит убивать / Sin City: A Dame to Kill For (Фрэнк Миллер, Роберт Родригес) [2014, боевик, триллер, криминал, HDRip | Лицезия] Dub

Dracon

3626 | 102

1.46 ГБ

В этой теме нет новых непрочитанных сообщений. 12 обезьян / 12 Monkeys [01x01-13 из 13] (Дэвид Гроссман, Майкл Ваксман, Джон Бэдэм) [2015, фантастика, триллер, драма, детектив, приключения, WEB-DLRip | LostFilm]

Nickolas3435

103 | 32

5.42 ГБ

В этой теме нет новых непрочитанных сообщений. 12 обезьян / 12 Monkeys [01x01-13 из 13] (Дэвид Гроссман, Майкл Ваксман, Джон Бэдэм) [2015, фантастика, триллер, драма, детектив, приключения, WEB-DL 720p | LostFilm]

Nickolas3435

13 | 14

16.69 ГБ


Начать новую тему Ответить на тему  [ 1 сообщение ] 




Для Мосгорсуда, Роскомнадзора и рекламодателей:: mosgorsud-torrent[собачка]yandex.ru