Торрент файл
скачать торрент магнет ссылка Добавлен: 28 июн 2015, 20:51
Размер: 2.76 ГБ
Сидеров: 61
Личеров: 2
Статус: (salma3)
Автор

СообщениеДобавлено: 28 июн 2015, 20:51 

Не в сети
Супермодератор
Аватара пользователя
Дата регистрации:
15 фев 2012, 16:44
Возраст: 28
Спасибо: 6593 / 2145
Сообщения: 44208
Год выхода: 1994
Жанр: Комедия, мелодрама
Режиссер: Ричард Бенджамин
В ролях: Мелани Гриффит, Эд Харрис, Майкл Патрик Картер, Малкольм МакДауэлл, Энн Хеч, Кэйси Семашко, Филип Боско, Брайан Кристофер, Адам Лаворна, Кевин Сканнелл, Джессика Уэссон, Маргарет Нэгл, Тони Д. Дэвис, Нэйтан Уильямс, Джулия Монтгомери

О фильме:
Трое двенадцатилетних школьников во главе в Фрэнком Уиллером накопили из карманных денег сто долларов и решили их с пользой потратить. Из тихого пригорода они отправляются в большой город посмотреть на голую женщину. Их желание исполняет проститутка по имени Ви. Она позаботилась также о том, чтобы ребята, у которых украли велосипеды, благополучно попали домой. Фрэнк справедливо полагает, что добрая и красивая женщина вполне может стать его матерью. В итоге всех перипетий она знакомится с овдовевшим отцом Фрэнка – Томом Уиллером. Дело осложняется тем, что проститутку преследует сутенёр Уолтцер, который не даёт так легко расстаться с тяжёлым прошлым.



Страна: США
Студия: Paramount Pictures, The Kennedy/Marshall Company
Продолжительность: 01:48:48
Перевод: Профессиональный многоголосый, авторский

Файл
Кодек: h.264
Качество: WEB-DLRip-AVC
Видео: 2482 Кбит/с, 1024x576, 23.976 кадр/с

Звук:
• №1: Русский (AC3, 2 ch, 192 Кбит/с) Профессиональный многоголосый [ТВ-Центр]
• №2: Русский (AC3, 2 ch, 192 Кбит/с) Профессиональный многоголосый [Paramount channel]
• №3: Русский (AC3, 6 ch, 384 Кбит/с) Авторский [Василий Горчаков]
• №4: Английский (AC3, 6 ch, 384 Кбит/с)

Субтитры: Русские, английские

Полное имя : Milk.Money.1994.x264.WEB-DLRip-AVC.0ptimus.mkv
Формат : Matroska
Версия формата : Version 2
Размер файла : 2,76 Гбайт
Продолжительность : 1 ч. 48 м.
Общий поток : 3634 Кбит/сек
Название фильма : Карманные деньги | Milk money [1994] -= WEB-DLRip (AVC) by 0ptimus =-
Дата кодирования : UTC 2015-06-28 05:44:02
Программа кодирования : mkvmerge v6.6.0 ('The Edge Of The In Between') built on Dec 1 2013 17:55:00
Библиотека кодирования : libebml v1.3.0 + libmatroska v1.4.1

Видео
Идентификатор : 1
Формат : AVC
Формат/Информация : Advanced Video Codec
Профиль формата : High@L4.1
Параметр CABAC формата : Да
Параметр ReFrames формата : 9 кадров
Идентификатор кодека : V_MPEG4/ISO/AVC
Продолжительность : 1 ч. 48 м.
Битрейт : 2482 Кбит/сек
Ширина : 1024 пикселя
Высота : 576 пикселей
Соотношение сторон : 16:9
Режим частоты кадров : Постоянный
Частота кадров : 23,976 кадра/сек
Цветовое пространство : YUV
Субдискретизация насыщенности : 4:2:0
Битовая глубина : 8 бит
Тип развёртки : Прогрессивная
Бит/(Пиксели*Кадры) : 0.176
Размер потока : 1,83 Гбайт (66%)
Заголовок : Rip by 0ptimus
Библиотека кодирования : x264 core 133 r2334 a3ac64b
Настройки программы : cabac=1 / ref=9 / deblock=1:-3:-3 / analyse=0x3:0x113 / me=umh / subme=10 / psy=1 / psy_rd=1.00:0.20 / mixed_ref=1 / me_range=32 / chroma_me=1 / trellis=2 / 8x8dct=1 / cqm=0 / deadzone=21,11 / fast_pskip=0 / chroma_qp_offset=-3 / threads=3 / lookahead_threads=1 / sliced_threads=0 / nr=0 / decimate=0 / interlaced=0 / bluray_compat=0 / constrained_intra=0 / bframes=11 / b_pyramid=2 / b_adapt=2 / b_bias=0 / direct=3 / weightb=1 / open_gop=0 / weightp=2 / keyint=240 / keyint_min=23 / scenecut=40 / intra_refresh=0 / rc_lookahead=40 / rc=2pass / mbtree=0 / bitrate=2482 / ratetol=1.0 / qcomp=0.60 / qpmin=0 / qpmax=69 / qpstep=4 / cplxblur=20.0 / qblur=0.5 / vbv_maxrate=50000 / vbv_bufsize=50000 / nal_hrd=none / ip_ratio=1.40 / pb_ratio=1.30 / aq=1:1.00
Язык : English
Default : Да
Forced : Да

Аудио #1
Идентификатор : 2
Формат : AC-3
Формат/Информация : Audio Coding 3
Расширение режима : CM (complete main)
Параметр Endianness формата : Big
Идентификатор кодека : A_AC3
Продолжительность : 1 ч. 48 м.
Вид битрейта : Постоянный
Битрейт : 192 Кбит/сек
Каналы : 2 канала
Расположение каналов : Front: L R
Частота : 48,0 КГц
Битовая глубина : 16 бит
Метод сжатия : С потерями
Размер потока : 149 Мбайт (5%)
Заголовок : Многоголосый [ТВ-Центр] AC3 2.0 @ 192 kbps
Язык : Russian
Default : Да
Forced : Да

Аудио #2
Идентификатор : 3
Формат : AC-3
Формат/Информация : Audio Coding 3
Расширение режима : CM (complete main)
Параметр Endianness формата : Big
Идентификатор кодека : A_AC3
Продолжительность : 1 ч. 48 м.
Вид битрейта : Постоянный
Битрейт : 192 Кбит/сек
Каналы : 2 канала
Расположение каналов : Front: L R
Частота : 48,0 КГц
Битовая глубина : 16 бит
Метод сжатия : С потерями
Размер потока : 149 Мбайт (5%)
Заголовок : Многоголосый [Paramount channel] AC3 2.0 @ 192 kbps
Язык : Russian
Default : Нет
Forced : Нет

Аудио #3
Идентификатор : 4
Формат : AC-3
Формат/Информация : Audio Coding 3
Расширение режима : CM (complete main)
Параметр Endianness формата : Big
Идентификатор кодека : A_AC3
Продолжительность : 1 ч. 48 м.
Вид битрейта : Постоянный
Битрейт : 384 Кбит/сек
Каналы : 6 каналов
Расположение каналов : Front: L C R, Side: L R, LFE
Частота : 48,0 КГц
Битовая глубина : 16 бит
Метод сжатия : С потерями
Размер потока : 299 Мбайт (11%)
Заголовок : Авторский [Василий Горчаков] AC3 5.1 @ 384 kbps
Язык : Russian
Default : Нет
Forced : Нет

Аудио #4
Идентификатор : 5
Формат : AC-3
Формат/Информация : Audio Coding 3
Расширение режима : CM (complete main)
Параметр Endianness формата : Big
Идентификатор кодека : A_AC3
Продолжительность : 1 ч. 48 м.
Вид битрейта : Постоянный
Битрейт : 384 Кбит/сек
Каналы : 6 каналов
Расположение каналов : Front: L C R, Side: L R, LFE
Частота : 48,0 КГц
Битовая глубина : 16 бит
Метод сжатия : С потерями
Размер потока : 299 Мбайт (11%)
Заголовок : AC3 5.1 @ 384 kbps
Язык : English
Default : Нет
Forced : Нет

Текст #1
Идентификатор : 6
Формат : UTF-8
Идентификатор кодека : S_TEXT/UTF8
Идентификатор кодека/Информация : UTF-8 Plain Text
Язык : Russian
Default : Нет
Forced : Нет

Текст #2
Идентификатор : 7
Формат : UTF-8
Идентификатор кодека : S_TEXT/UTF8
Идентификатор кодека/Информация : UTF-8 Plain Text
Язык : English
Default : Нет
Forced : Нет

Меню
00:00:00.000 : en:Mysteries of the Universe
00:05:30.000 : en:Milk Money
00:13:20.000 : en:The Search
00:18:04.000 : en:V
00:25:17.000 : en:The Math Tutor
00:35:04.000 : en:Sleeping Arrangements
00:48:14.000 : en:Oral Report
00:55:20.000 : en:Mammalian Pull
01:02:49.000 : en:Grace Kelly
01:12:59.000 : en:Dance Lessons
01:23:09.000 : en:Sock Hop
01:30:45.000 : en:The Chase
01:38:31.000 : en:Worth Waiting For




Релиз от:


_________________
Проголосуй за трекер Открытый торрент трекер - RUS-MEDIA.ORG

Проголосуй Открытый торрент трекер - RUS-MEDIA.ORG



реклама партнёра


Вернуться к началу
 Профиль Отправить личное сообщение  
 
   Похожие торренты   Автор   Торрент   Размер 
В этой теме нет новых непрочитанных сообщений. Карманные деньги / Milk Money [мелодрама, комедия, 1994] WEB-DL 1080p, Mvo

salma3

6 | 0

11.29 ГБ

В этой теме нет новых непрочитанных сообщений. Легкие деньги / Free Money [Комедия, криминал, 1998] WEB-DLRip, Mvo

salma3

0 | 0

2.19 ГБ

В этой теме нет новых непрочитанных сообщений. Кровавые Деньги / Blood Money [ужасы, триллер, 2017] WEB-DLRip, Mvo

salma3

493 | 201

1.36 ГБ

В этой теме нет новых непрочитанных сообщений. Там, где деньги / Where the Money Is [драма, комедия, криминал, 2000] HDRip, Dvo

salma3

71 | 33

1.45 ГБ

В этой теме нет новых непрочитанных сообщений. Легкие деньги / Easy Money [комедия, 1983] BDRip, Mvo

salma3

19 | 1

1.45 ГБ

В этой теме нет новых непрочитанных сообщений. Легкие деньги / Easy Money [комедия, 1983] BDRip, Dvo

salma3

19 | 7

1.45 ГБ

В этой теме нет новых непрочитанных сообщений. Шальные деньги / Mad Money [Комедия, криминал, 2008] BDRip-AVC, Mvo

salma3

154 | 44

1.46 ГБ


Начать новую тему Ответить на тему  [ 1 сообщение ] 




Для Мосгорсуда, Роскомнадзора и рекламодателей:: mosgorsud-torrent[собачка]yandex.ru