Торрент файл
скачать торрент магнет ссылка Добавлен: 25 июн 2015, 23:58
Размер: 2.91 ГБ
Сидеров: 35
Личеров: 1
Статус: (salma3)
Автор

СообщениеДобавлено: 25 июн 2015, 23:58 

В сети
Супермодератор
Аватара пользователя
Дата регистрации:
15 фев 2012, 16:44
Возраст: 27
Спасибо: 5121 / 2089
Сообщения: 17276
Год выхода: 2001
Жанр: Ужасы, фантастика, боевик

Режиссер: Джон Карпентер

В ролях: Наташа Хенстридж, Айс Кьюб, Джейсон Стэтхэм, Клеа ДюВалл, Пэм Гриер, Джоанна Кэссиди, Ричард Цетрон, Розмари Форсайт, Лайам Вейт, Дуан Дэвис

О фильме:
Планета Марс, 2176 год. На одну из дальних шахтерских станций на специальном поезде отправляется отряд полиции, чтобы забрать и доставить в город опасного преступника Уильямса, подозреваемого в убийстве и грабеже. Однако члены отряда еще даже не догадываются о той опасности, которую им приготовил Марс. Ведь отважным полицейским придется столкнуться не столько с людьми, сколько с таинственными и зловещими силами, живущими в самой планете.



Страна: США
Студия: Animationwerks, Screen Gems, Storm King Productions
Продолжительность: 01:38:07
Перевод: Профессиональный (многоголосый, закадровый), авторский (одноголосый, закадровый) Ю.Живов
Субтитры: Русские, английские

Файл
Качество: BDRip-AVC
Видео: MPEG-4 AVC/H.264, 1024x432 (2.35:1), 23.976 fps, 2 965 Kbps (0.280 bit/pixel)
Аудио #1: AC-3, 48.0 KHz, 6 ch, 640 Kbps, CBR (Russian)- многоголосый
Аудио #2: AC-3, 48.0 KHz, 6 ch, 640 Kbps, CBR (Russian)- Ю.Живов

Format : Matroska
Format version : Version 2
File size : 2.91 GiB
Duration : 1h 38mn
Overall bit rate : 4 246 Kbps
Movie name : Ghosts of Mars (2001)
Encoded date : UTC 2014-09-21 04:33:40
Writing application : mkvmerge v5.3.0 ('I could have danced') built on Feb 9 2012 10:38:07
Writing library : libebml v1.2.3 + libmatroska v1.3.0
Attachment : Yes

Video
ID : 1
Format : AVC
Format/Info : Advanced Video Codec
Format profile : High@L4.1
Format settings, CABAC : Yes
Format settings, ReFrames : 9 frames
Codec ID : V_MPEG4/ISO/AVC
Duration : 1h 38mn
Bit rate : 2 965 Kbps
Width : 1 024 pixels
Height : 432 pixels
Display aspect ratio : 2.40:1
Frame rate mode : Constant
Frame rate : 23.976 fps
Color space : YUV
Chroma subsampling : 4:2:0
Bit depth : 8 bits
Scan type : Progressive
Bits/(Pixel*Frame) : 0.280
Stream size : 1.98 GiB (68%)
Writing library : x264 core 142 r2431 ac76440
Encoding settings : cabac=1 / ref=9 / deblock=1:-1:-1 / analyse=0x3:0x133 / me=umh / subme=10 / psy=1 / psy_rd=1.00:0.00 / mixed_ref=1 / me_range=32 / chroma_me=1 / trellis=2 / 8x8dct=1 / cqm=0 / deadzone=21,11 / fast_pskip=1 / chroma_qp_offset=-2 / threads=12 / lookahead_threads=2 / sliced_threads=0 / nr=0 / decimate=1 / interlaced=0 / bluray_compat=0 / constrained_intra=0 / bframes=9 / b_pyramid=2 / b_adapt=2 / b_bias=0 / direct=3 / weightb=1 / open_gop=0 / weightp=2 / keyint=240 / keyint_min=23 / scenecut=40 / intra_refresh=0 / rc=2pass / mbtree=0 / bitrate=2965 / ratetol=1.0 / qcomp=0.60 / qpmin=0 / qpmax=69 / qpstep=4 / cplxblur=20.0 / qblur=0.5 / ip_ratio=1.40 / pb_ratio=1.30 / aq=1:1.00
Language : English
Default : Yes
Forced : No

Audio #1
ID : 2
Format : AC-3
Format/Info : Audio Coding 3
Mode extension : CM (complete main)
Format settings, Endianness : Big
Codec ID : A_AC3
Duration : 1h 38mn
Bit rate mode : Constant
Bit rate : 640 Kbps
Channel(s) : 6 channels
Channel positions : Front: L C R, Side: L R, LFE
Sampling rate : 48.0 KHz
Bit depth : 16 bits
Compression mode : Lossy
Stream size : 449 MiB (15%)
Title : Russian MVO DD 5.1 @ 640 kbps
Language : Russian
Default : Yes
Forced : No

Audio #2
ID : 3
Format : AC-3
Format/Info : Audio Coding 3
Mode extension : CM (complete main)
Format settings, Endianness : Big
Codec ID : A_AC3
Duration : 1h 38mn
Bit rate mode : Constant
Bit rate : 640 Kbps
Channel(s) : 6 channels
Channel positions : Front: L C R, Side: L R, LFE
Sampling rate : 48.0 KHz
Bit depth : 16 bits
Compression mode : Lossy
Stream size : 449 MiB (15%)
Title : Russian AVO (Zhivov) DD 5.1 @ 640 kbps
Language : Russian
Default : No
Forced : No

Text #1
ID : 4
Format : UTF-8
Codec ID : S_TEXT/UTF8
Codec ID/Info : UTF-8 Plain Text
Title : Russian forced SRT/UTF8
Language : Russian
Default : Yes
Forced : No

Text #2
ID : 5
Format : UTF-8
Codec ID : S_TEXT/UTF8
Codec ID/Info : UTF-8 Plain Text
Title : Russian SRT/UTF8
Language : Russian
Default : No
Forced : No

Text #3
ID : 6
Format : UTF-8
Codec ID : S_TEXT/UTF8
Codec ID/Info : UTF-8 Plain Text
Title : English SRT/UTF8
Language : English
Default : No
Forced : No

Menu
00:00:00.000 : en:Start
00:04:47.370 : en:Mars Police Force Squad; Shining Canyon
00:12:47.642 : en:The Jail
00:17:25.503 : en:A Slaughterhouse; Dr. Arlene Whitlock
00:23:34.830 : en:Possessed; "Don't Let It Out!"; Hostage Situation
00:29:54.376 : en:The Clinic; What Happened at K305
00:35:22.370 : en:Dead Head; Big Daddy Mars; Whitlock's Theory
00:40:51.824 : en:Uno, Dos, Tres
00:46:03.135 : en:The Deal; Plan A
00:53:02.805 : en:Tearing the Town Apart; Plan B
00:59:08.086 : en:Pandora's Box; Messing With Martians
01:07:56.239 : en:Alone & Unharmed
01:11:26.449 : en:Jail Siege
01:15:01.205 : en:Train to Catch
01:19:59.336 : en:A Simple Plan Goes Awry; Lightening the Load
01:27:37.544 : en:"I Can't Let You Walk"; Tide's Up


_________________



реклама партнёра


Вернуться к началу
 Профиль Отправить личное сообщение  
 
   Похожие торренты   Автор   Торрент   Размер 
В этой теме нет новых непрочитанных сообщений. Человек-краб с Марса / Lobster Man from Mars [ужасы, фантастика, комедия, 1988] DVDRip, 2Avo

salma3

14 | 4

1.46 ГБ

В этой теме нет новых непрочитанных сообщений. Призраки в Коннектикуте 2: Тени прошлого / The Haunting in Connecticut 2: Ghosts of Georgia (Том Элкинс) [2013, ужасы, триллер, драма, BDRip | Лицензия] Dub

Nickolas3435

454 | 23

1.45 ГБ

В этой теме нет новых непрочитанных сообщений. Призраки в Коннектикуте 2: Тени прошлого / The Haunting in Connecticut 2: Ghosts of Georgia [ужасы, триллер, драма, 2013] BDRip 1080p, dvo+dub+sub [Чистый звук]

Dracon

100 | 3

6.92 ГБ

В этой теме нет новых непрочитанных сообщений. Призраки чрева / Ngok toi / Womb Ghosts [Ужасы, 2010] Blu-ray Remux 1080p, Avo+Sub

salma3

14 | 8

13.48 ГБ

В этой теме нет новых непрочитанных сообщений. Призраки Гойи / Goya's Ghosts [драма, биография, история, 2006] BDRip 720p, Dub+Avo+Sub

salma3

48 | 5

6.94 ГБ

В этой теме нет новых непрочитанных сообщений. Призраки в Коннектикуте 2: Тени прошлого / The Haunting in Connecticut 2: Ghosts of Georgia [ужасы, триллер, драма, 2013] HDRip, dub [Чистый звук]

Dracon

200 | 5

1.46 ГБ

В этой теме нет новых непрочитанных сообщений. Призраки Миссисипи / Ghosts of Mississippi [Драма, криминал, 1996] WEB-DL 720p, Mvo+Avo+Sub

salma3

65 | 7

4.1 ГБ


Начать новую тему Ответить на тему  [ 1 сообщение ] 




Для Мосгорсуда, Роскомнадзора и рекламодателей:: mosgorsud-torrent[собачка]yandex.ru