Торрент файл
скачать торрент магнет ссылка Добавлен: 25 июн 2015, 11:57
Размер: 2.19 ГБ
Сидеров: 34
Личеров: 6
Статус: (salma3)
Автор

СообщениеДобавлено: 25 июн 2015, 11:57 

В сети
Супермодератор
Аватара пользователя
Дата регистрации:
15 фев 2012, 16:44
Возраст: 28
Спасибо: 6594 / 2145
Сообщения: 44279
Год выхода: 1978
Жанр: Приключения, Ужасы
Режиссер: Жанно Шварц

В ролях: Рой Шайдер /Roy Scheider/, Лоррэйн Гэри /Lorraine Gary/, Мюррэй Хэмилтон /Murray Hamilton/, Коллин Уилкокс /Collin Wilcox/, Джеффри Крэймер /Jeffrey Kramer/, Джозеф Масколо /Joseph Mascolo/

О фильме:
Акула-убийца, несколько лет назад терроризировавшая побережье курортного городка Эмити, вернулась! Гигантский хищник снова начал охоту. Рискуя жизнью, шеф полиции морского парка Мартин Броди вступает в борьбу с чудовищем, чей голод теперь во много раз сильнее!



Страна: США
Продолжительность: 1:55:57
Перевод: Профессиональный (многоголосый, закадровый)

Файл
Кодек: h.264
Качество: HDTVRip-AVC
Видео: MPEG-4, 1024x432, 23.976 fps ~2315 kbps
Звук:
1) 48 KHz, AC3, 2 ch ~192 Kbps - MVO
2) 48 KHz, AC3, 2 ch ~192 Kbps - Original

General
Unique ID : 186990067193832019212409095564090489989 (0x8CACFA1AC825C63C8F5131868D7D3C85)
Complete name : E:VideoЧелюсти 2 (1978).mkv
Format : Matroska
Format version : Version 4 / Version 2
File size : 2.19 GiB
Duration : 1h 55mn
Overall bit rate : 2 701 Kbps
Movie name : Jaws 2 bhdtracker.ruB
Encoded date : UTC 2015-06-19 07:37:19
Writing application : mkvmerge v7.9.0 ('Birds') 64bit
Writing library : Lavf55.12.0
Attachements : Cover_rus.jpg

Video
ID : 1
Format : AVC
Format/Info : Advanced Video Codec
Format profile : High@L4.1
Format settings, CABAC : Yes
Format settings, ReFrames : 12 frames
Codec ID : V_MPEG4/ISO/AVC
Duration : 1h 55mn
Bit rate : 2 315 Kbps
Width : 1 024 pixels
Height : 432 pixels
Display aspect ratio : 2.40:1
Frame rate mode : Constant
Frame rate : 23.976 fps
Color space : YUV
Chroma subsampling : 4:2:0
Bit depth : 8 bits
Scan type : Progressive
Bits/(Pixel*Frame) : 0.218
Stream size : 1.83 GiB (84%)
Title : MPEG-4, 1024x432, 23.976 fps ~2315 kbps
Writing library : x264 core 142 r2479 dd79a61
Encoding settings : cabac=1 / ref=12 / deblock=1:-2:-1 / analyse=0x3:0x113 / me=umh / subme=10 / psy=1 / psy_rd=1.00:0.00 / mixed_ref=1 / me_range=32 / chroma_me=1 / trellis=2 / 8x8dct=1 / cqm=0 / deadzone=21,11 / fast_pskip=0 / chroma_qp_offset=-2 / threads=3 / lookahead_threads=1 / sliced_threads=0 / nr=0 / decimate=1 / interlaced=0 / bluray_compat=0 / constrained_intra=0 / bframes=16 / b_pyramid=2 / b_adapt=2 / b_bias=0 / direct=3 / weightb=1 / open_gop=0 / weightp=2 / keyint=240 / keyint_min=24 / scenecut=40 / intra_refresh=0 / rc_lookahead=50 / rc=2pass / mbtree=1 / bitrate=2315 / ratetol=1.0 / qcomp=0.60 / qpmin=0 / qpmax=69 / qpstep=4 / cplxblur=20.0 / qblur=0.5 / vbv_maxrate=62500 / vbv_bufsize=78125 / nal_hrd=none / filler=0 / ip_ratio=1.40 / aq=1:1.00
Language : English
Default : Yes
Forced : No
Color range : Limited
Color primaries : BT.709
Transfer characteristics : BT.709
Matrix coefficients : BT.709
_STATISTICS_WRITING_APP : mkvmerge v7.9.0 ('Birds') 64bit
_STATISTICS_WRITING_DATE_UT : 2015-06-19 07:37:19
_STATISTICS_TAGS : BPS DURATION NUMBER_OF_FRAMES NUMBER_OF_BYTES
DURATION : 01:55:57.451000000
NUMBER_OF_FRAMES : 166812
NUMBER_OF_BYTES : 2013342304

Audio #1
ID : 2
Format : AC-3
Format/Info : Audio Coding 3
Mode extension : CM (complete main)
Format settings, Endianness : Big
Codec ID : A_AC3
Duration : 1h 55mn
Bit rate mode : Constant
Bit rate : 192 Kbps
Channel(s) : 2 channels
Channel positions : Front: L R
Sampling rate : 48.0 KHz
Compression mode : Lossy
Delay relative to video : -5ms
Stream size : 159 MiB (7%)
Title : 48 KHz, AC3, 2 ch ~192 Kbps - MVO
Language : Russian
Default : Yes
Forced : No
_STATISTICS_WRITING_APP : mkvmerge v7.9.0 ('Birds') 64bit
_STATISTICS_WRITING_DATE_UT : 2015-06-19 07:37:19
_STATISTICS_TAGS : BPS DURATION NUMBER_OF_FRAMES NUMBER_OF_BYTES
DURATION : 01:55:57.344000000
NUMBER_OF_FRAMES : 217417
NUMBER_OF_BYTES : 166976256

Audio #2
ID : 3
Format : AC-3
Format/Info : Audio Coding 3
Mode extension : CM (complete main)
Format settings, Endianness : Big
Codec ID : A_AC3
Duration : 1h 55mn
Bit rate mode : Constant
Bit rate : 192 Kbps
Channel(s) : 2 channels
Channel positions : Front: L R
Sampling rate : 48.0 KHz
Compression mode : Lossy
Delay relative to video : -5ms
Stream size : 159 MiB (7%)
Title : 48 KHz, AC3, 2 ch ~192 Kbps - Original
Language : English
Default : No
Forced : No
_STATISTICS_WRITING_APP : mkvmerge v7.9.0 ('Birds') 64bit
_STATISTICS_WRITING_DATE_UT : 2015-06-19 07:37:19
_STATISTICS_TAGS : BPS DURATION NUMBER_OF_FRAMES NUMBER_OF_BYTES
DURATION : 01:55:57.472000000
NUMBER_OF_FRAMES : 217421
NUMBER_OF_BYTES : 166979328


_________________
Проголосуй за трекер Открытый торрент трекер - RUS-MEDIA.ORG

Проголосуй Открытый торрент трекер - RUS-MEDIA.ORG



реклама партнёра


Вернуться к началу
 Профиль Отправить личное сообщение  
 
   Похожие торренты   Автор   Торрент   Размер 
В этой теме нет новых непрочитанных сообщений. Челюсти / Jaws [триллер, приключения, ужасы, 1975] BDRip-AVC, Mvo

salma3

78 | 18

1.45 ГБ

В этой теме нет новых непрочитанных сообщений. Челюсти 4: Месть / Jaws 4: The Revenge [Триллер, 1987] BDRemux 1080p, Mvo+Sub

salma3

6 | 0

23.36 ГБ

В этой теме нет новых непрочитанных сообщений. Наследие / The Legacy [ужасы, триллер, 1978] BDRip, Mvo

salma3

31 | 8

1.45 ГБ

В этой теме нет новых непрочитанных сообщений. Наследие / The Legacy [Ужасы, Триллер, 1978] BDRip 1080p, Mvo

salma3

59 | 34

7.76 ГБ

В этой теме нет новых непрочитанных сообщений. Вопль / The Shout [ужасы, драма, 1978] BDRemux 1080p, Dvo

salma3

0 | 5

17.37 ГБ

В этой теме нет новых непрочитанных сообщений. Возвращение / The Comeback [ужасы, детектив, триллер, 1978] BDRip 720p, Avo

salma3

17 | 8

6.88 ГБ

В этой теме нет новых непрочитанных сообщений. На юг / Goin' South [комедия, мелодрама, вестерн, 1978] HDTVRip 1080p, Mvo+Sub

salma3

0 | 0

7.91 ГБ


Начать новую тему Ответить на тему  [ 1 сообщение ] 




Для Мосгорсуда, Роскомнадзора и рекламодателей:: mosgorsud-torrent[собачка]yandex.ru