Торрент файл
скачать торрент магнет ссылка Добавлен: 19 июн 2015, 11:36
Размер: 1.46 ГБ
Сидеров: 37
Личеров: 0
Статус: (salma3)
Автор

СообщениеДобавлено: 19 июн 2015, 11:36 

Не в сети
Супермодератор
Аватара пользователя
Дата регистрации:
15 фев 2012, 16:44
Возраст: 28
Спасибо: 6578 / 2143
Сообщения: 43992
Первая сила / The First Power

Год выпуска: 1990
Жанр: Триллер, ужасы
Режиссер: Роберт Резникофф

В ролях: Лу Даймонд Филлипс, Трэйси Гриффит, Джефф Кобер, Майкелти Уильямсон, Элизабет Арлен, Деннис Липском, Кармен Ардженциано, Джулианна МакКарти, Нада Деспотович, Клэйтон Ланди, Хансфорд Роу, Филип Эбботт, Дэвид Гэйл, Дж. Патрик МакНамара, Лиза Спечт, Марк Бринглсон, Уильям Фэйр, Брайан Либби, Майкл МакНаб

О фильме:
После долгой охоты, детектив Расселл Логан, наконец-то, арестовывает зверского ритуального убийцу и наблюдает за его казнью в Сан Квентине. Однако, когда ритуальные убийства начинают происходить снова, у Логана появляются видения и он обращается за помощью к экстрасенсу. Вместе они обнаруживают, что ритуальный убийца — это один из учеников Сатаны, обладающий ужасной силой перевоплощения в тела других людей. Теперь Логан должен приступить к поискам убийцы снова, не зная где он, и что более ужасно, в кого он перевоплотился на этот раз...



Выпущено: США
Продолжительность: 01:38:34
Перевод: Авторский (одноголосый, закадровый) [А.Гаврилов]

Файл
Качество: BDRip
Формат файла: AVI
Видео кодек: XviD
Аудио кодек: AC3
Видео: MPEG4, XviD, 720x400 (16:9), 23.976 fps, 1 848 Kbps (0.268 bit/pixel)
Аудио: AC-3, 48.0 KHz, 2 ch, 256 Kbps, CBR

Релиз от: FAGOT100

Формат : AVI
Формат/Информация : Audio Video Interleave
Размер файла : 1,46 Гбайт
Продолжительность : 1 ч. 38 м.
Общий поток : 2114 Кбит/сек
Программа кодирования : VirtualDubMod 1.5.10.3 | http://www.virtualdub-fr.org || (build 2550/release)
Библиотека кодирования : VirtualDubMod build 2550/release

Видео
Идентификатор : 0
Формат : MPEG-4 Visual
Профиль формата : Advanced Simple@L5
Параметр BVOP формата : 2
Параметр QPel формата : Нет
Параметр GMC формата : Без точки перехода
Параметр матрицы формата : Выборочная
Идентификатор кодека : XVID
Идентификатор кодека/Подсказка : XviD
Продолжительность : 1 ч. 38 м.
Битрейт : 1848 Кбит/сек
Ширина : 720 пикселей
Высота : 400 пикселей
Соотношение сторон : 16:9
Частота кадров : 23,976 кадра/сек
Цветовое пространство : YUV
Субдискретизация насыщенности : 4:2:0
Битовая глубина : 8 бит
Тип развёртки : Прогрессивная
Метод сжатия : С потерями
Бит/(Пиксели*Кадры) : 0.268
Размер потока : 1,27 Гбайт (87%)
Библиотека кодирования : XviD 73

Аудио
Идентификатор : 1
Формат : AC-3
Формат/Информация : Audio Coding 3
Расширение режима : CM (complete main)
Параметр Endianness формата : Big
Идентификатор кодека : 2000
Продолжительность : 1 ч. 38 м.
Вид битрейта : Постоянный
Битрейт : 256 Кбит/сек
Каналы : 2 канала
Расположение каналов : Front: L R
Частота : 48,0 КГц
Битовая глубина : 16 бит
Метод сжатия : С потерями
Размер потока : 180 Мбайт (12%)
Выравнивание : Разделение по промежуткам
Продолжительность промежутка : 42 мс. (1,00 видеокадр)
Время предзагрузки промежутка : 500 мс.



_________________
Проголосуй за трекер Открытый торрент трекер - RUS-MEDIA.ORG

Проголосуй Открытый торрент трекер - RUS-MEDIA.ORG



реклама партнёра


Вернуться к началу
 Профиль Отправить личное сообщение  
 
   Похожие торренты   Автор   Торрент   Размер 
В этой теме нет новых непрочитанных сообщений. Первая сила / The First Power [Триллер, ужасы, 1990] BDRip-AVC, Avo

salma3

32 | 6

2.33 ГБ

В этой теме нет новых непрочитанных сообщений. Первая сила / The First Power [ужасы, триллер, криминал, 1990] BDRemux 1080p, Dvo+Avo+Sub

salma3

32 | 3

15.4 ГБ

В этой теме нет новых непрочитанных сообщений. Кловерфилд, 10 / 10 Cloverfield Lane [ужасы, фантастика, триллер, 2016] BDRip, Avo Гаврилов]

salma3

49 | 12

1.46 ГБ

В этой теме нет новых непрочитанных сообщений. Нечто / The Thing [ужасы, фантастика, триллер, детектив, 2011] BDRip, Avo [Гаврилов]

salma3

134 | 14

1.45 ГБ

В этой теме нет новых непрочитанных сообщений. Скорая помощь / The Ambulance [боевик, триллер, мелодрама, 1990] DVDRip, Avo [Гаврилов]

salma3

10 | 3

1.31 ГБ

В этой теме нет новых непрочитанных сообщений. Птичка на проводе / Bird on a Wire [Боевик, Комедия, Приключения, Триллер, 1990] WEB-DLRip, Avo [Гаврилов]

salma3

33 | 9

1.46 ГБ

В этой теме нет новых непрочитанных сообщений. Оно / It [ужасы, фэнтези, триллер, 1990] BDRip, Mvo

salma3

113 | 26

2.91 ГБ


Начать новую тему Ответить на тему  [ 1 сообщение ] 




Для Мосгорсуда, Роскомнадзора и рекламодателей:: mosgorsud-torrent[собачка]yandex.ru