Торрент файл
скачать торрент магнет ссылка Добавлен: 16 июн 2015, 21:42
Размер: 2.5 ГБ
Сидеров: 1036
Личеров: 40
Статус: (salma3)
Автор

СообщениеДобавлено: 16 июн 2015, 21:42 

Не в сети
Зам. Админа
Аватара пользователя
Дата регистрации:
02 дек 2010, 12:39
Спасибо: 12461 / 214
Сообщения: 27968
Год выхода: 2015
Жанр: Фантастика, триллер
Режиссер: Дин Израэлайт
В ролях: Джонни Уэстон, София Блэк-Д’Элиа, Сэм Лернер, Аллен Евангелиста, Вирджиния Гарднер, Эми Ландекер, Гари Викс, Максен Линтц, Гэри Граббс, Мишель ДеФрайтс, Карри Стоун, Джамила Томпсон, Хиллари Харли, Кортни Бауэрс, Патрик Джонсон, Джошуа Брэйди, Даниэль Риззо, Михаэль Бейтс, Онира Саттервайт, Аманда Ярош

О фильме:
Однажды после просмотра старой пленки со дня рождения уже взрослый именинник заметил себя «настоящего» в отражении на видео. Съедаемые любопытством, друзья нашли чертежи таинственного устройства, похожего на машину времени. Они решили доделать ее и испробовать, чтобы вернуться в прошлое и исправить некоторые ошибки. Но что будет, если группа отвязных тинейджеров случайно завладеет машиной времени? Однозначно, будет весело! Пока кто-то не нарушит правила, и веселая шутка не обернется кошмаром. Надо торопиться восстановить континуум, пока мир окончательно не разрушен!


Страна: США
Студия: Insurge Pictures, MTV Films, Paramount Pictures
Продолжительность: 01:46:13
Перевод: Дублированный (iTunes)

Кодек: MPEG-4 AVC
Качество: BDRip-AVC
Видео: 2600 Кбит/с, 1024x424
Звук: Русский, английский (AC3, 6 ch, 384 Кбит/с)
Субтитры: Русские (форс., полные), английские (полные, SDH)

Рип от StarbirS

Аудио#1: Русский: 48 kHz, AC3, 3/2 (L,C,R,l,r) + LFE ch, ~384.00 kbps avg - Дублированный (iTunes)
Aудио#2: Английский 48 kHz, AC3, 3/2 (L,C,R,l,r) + LFE ch, ~384.00 kbps avg - Оригинал

Субтитры: Русские (форс., полные), английские (полные, SDH)

x264 [info]: frame I:797 Avg QP:16.96 size: 60998
x264 [info]: frame P:44467 Avg QP:20.92 size: 23715
x264 [info]: frame B:107530 Avg QP:22.86 size: 8974

Формат : Matroska
Версия формата : Version 2
Размер файла : 2,50 Гбайт
Продолжительность : 1 ч. 46 м.
Общий поток : 3367 Кбит/сек
Название фильма : Project.Almanac.2015.x264.BDRip.AVC.Rus.Eng
Дата кодирования : UTC 2015-06-16 12:07:58
Программа кодирования : mkvmerge v7.9.0 ('Birds') 64bit
Библиотека кодирования : libebml v1.3.1 + libmatroska v1.4.2

Видео
Идентификатор : 1
Формат : AVC
Формат/Информация : Advanced Video Codec
Профиль формата : High@L4.1
Параметр CABAC формата : Да
Параметр ReFrames формата : 12 кадров
Идентификатор кодека : V_MPEG4/ISO/AVC
Продолжительность : 1 ч. 46 м.
Битрейт : 2600 Кбит/сек
Ширина : 1024 пикселя
Высота : 424 пикселя
Соотношение сторон : 2,40:1
Режим частоты кадров : Постоянный
Частота кадров : 23,976 кадра/сек
Цветовое пространство : YUV
Субдискретизация насыщенности : 4:2:0
Битовая глубина : 8 бит
Тип развёртки : Прогрессивная
Бит/(Пиксели*Кадры) : 0.250
Размер потока : 1,88 Гбайт (75%)
Заголовок : Project.Almanac.2015.x264.BDRip.AVC.Rus.Eng.by.StarbirS
Библиотека кодирования : x264 core 146 r2538 121396c
Настройки программы : cabac=1 / ref=12 / deblock=1:-3:-3 / analyse=0x3:0x113 / me=umh / subme=11 / psy=1 / psy_rd=1.10:0.15 / mixed_ref=1 / me_range=32 / chroma_me=1 / trellis=2 / 8x8dct=1 / cqm=0 / deadzone=21,11 / fast_pskip=0 / chroma_qp_offset=-3 / threads=12 / lookahead_threads=2 / sliced_threads=0 / nr=0 / decimate=0 / interlaced=0 / bluray_compat=0 / constrained_intra=0 / bframes=8 / b_pyramid=2 / b_adapt=2 / b_bias=0 / direct=3 / weightb=1 / open_gop=1 / weightp=2 / keyint=240 / keyint_min=23 / scenecut=40 / intra_refresh=0 / rc=2pass / mbtree=0 / bitrate=2600 / ratetol=1.0 / qcomp=0.70 / qpmin=0 / qpmax=69 / qpstep=4 / cplxblur=20.0 / qblur=0.5 / ip_ratio=1.40 / pb_ratio=1.30 / aq=1:0.70
Язык : English
Default : Да
Forced : Нет

Аудио #1
Идентификатор : 2
Формат : AC-3
Формат/Информация : Audio Coding 3
Расширение режима : CM (complete main)
Параметр Endianness формата : Big
Идентификатор кодека : A_AC3
Продолжительность : 1 ч. 46 м.
Вид битрейта : Постоянный
Битрейт : 384 Кбит/сек
Каналы : 6 каналов
Расположение каналов : Front: L C R, Side: L R, LFE
Частота : 48,0 КГц
Метод сжатия : С потерями
Размер потока : 292 Мбайт (11%)
Заголовок : Дублированный (iTunes)
Язык : Russian
Default : Да
Forced : Нет

Аудио #2
Идентификатор : 3
Формат : AC-3
Формат/Информация : Audio Coding 3
Расширение режима : CM (complete main)
Параметр Endianness формата : Big
Идентификатор кодека : A_AC3
Продолжительность : 1 ч. 46 м.
Вид битрейта : Постоянный
Битрейт : 384 Кбит/сек
Каналы : 6 каналов
Расположение каналов : Front: L C R, Side: L R, LFE
Частота : 48,0 КГц
Метод сжатия : С потерями
Размер потока : 292 Мбайт (11%)
Язык : English
Default : Нет
Forced : Нет

Текст #1
Идентификатор : 4
Формат : UTF-8
Идентификатор кодека : S_TEXT/UTF8
Идентификатор кодека/Информация : UTF-8 Plain Text
Заголовок : forced
Язык : Russian
Default : Нет
Forced : Нет

Текст #2
Идентификатор : 5
Формат : UTF-8
Идентификатор кодека : S_TEXT/UTF8
Идентификатор кодека/Информация : UTF-8 Plain Text
Заголовок : full
Язык : Russian
Default : Нет
Forced : Нет

Текст #3
Идентификатор : 6
Формат : UTF-8
Идентификатор кодека : S_TEXT/UTF8
Идентификатор кодека/Информация : UTF-8 Plain Text
Язык : English
Default : Нет
Forced : Нет

Текст #4
Идентификатор : 7
Формат : UTF-8
Идентификатор кодека : S_TEXT/UTF8
Идентификатор кодека/Информация : UTF-8 Plain Text
Заголовок : SDH
Язык : English
Default : Нет
Forced : Нет

Меню
00:00:00.000 : en:00:00:00.000
00:07:56.308 : en:00:07:56.308
00:15:20.210 : en:00:15:20.210
00:23:49.803 : en:00:23:49.803
00:31:15.664 : en:00:31:15.664
00:39:19.273 : en:00:39:19.273
00:46:58.273 : en:00:46:58.273
00:54:11.956 : en:00:54:11.956
01:00:55.485 : en:01:00:55.485
01:09:43.304 : en:01:09:43.304
01:16:24.371 : en:01:16:24.371
01:23:07.731 : en:01:23:07.731
01:32:20.618 : en:01:32:20.618
01:41:19.323 : en:01:41:19.323








реклама партнёра


Вернуться к началу
 Профиль  
 
   Похожие торренты   Автор   Торрент   Размер 
В этой теме нет новых непрочитанных сообщений. Континуум / Project Almanac (Дин Израэлайт) [Фантастика, Триллер, 2014] BDRip 1080p, Dub+Sub [iTunes]

Dracon

231 | 169

14.18 ГБ

В этой теме нет новых непрочитанных сообщений. Континуум / Project Almanac (Дин Израэлайт) [Фантастика, Триллер, 2014] BDRip 720p, Dub [iTunes]

Dracon

151 | 73

7.96 ГБ

В этой теме нет новых непрочитанных сообщений. Континуум / Project Almanac (Дин Израэлайт) [Фантастика, Триллер, 2014] HDRip, Dub [iTunes]

Dracon

4 | 0

1.45 ГБ

В этой теме нет новых непрочитанных сообщений. Континуум / Project Almanac (Дин Израэлайт) [Фантастика, Триллер, 2014] HDRip, Dub [iTunes]

Dracon

3 | 0

2.05 ГБ

В этой теме нет новых непрочитанных сообщений. Континуум / Project Almanac (Дин Израэлайт) [Фантастика, Триллер, 2014] BDRemux 1080p, Dub [iTunes]

Dracon

26 | 2

27.72 ГБ

В этой теме нет новых непрочитанных сообщений. Континуум / Project Almanac (Дин Израэлайт) [Фантастика, Триллер, 2014] BDRip 1080p, Dub+Sub [Лицензия]

Dracon

313 | 18

10.84 ГБ

В этой теме нет новых непрочитанных сообщений. Континуум / Project Almanac (Дин Израэлайт) [Фантастика, Триллер, 2014] HDRip, dub [звук с TS]

Dracon

0 | 0

1.37 ГБ


Начать новую тему Ответить на тему  [ 1 сообщение ] 




Для Мосгорсуда, Роскомнадзора и рекламодателей:: mosgorsud-torrent[собачка]yandex.ru