Торрент файл
скачать торрент магнет ссылка Добавлен: 14 июн 2015, 21:58
Размер: 2.6 ГБ
Сидеров: 0
Личеров: 0
Статус: (salma3)
Автор

СообщениеДобавлено: 14 июн 2015, 21:58 

Не в сети
Зам. Админа
Аватара пользователя
Дата регистрации:
02 дек 2010, 12:39
Спасибо: 12461 / 214
Сообщения: 27968
Год выхода: 2015
Жанр: Комедия
Режиссер: Джон Мэллори Ашер
В ролях: Ли Тергесен, Итан Сапли, Донни Уолбер,г Дженни МакКарти, Лукас Хаас, Лорен Стемайл, Рено Уилсон, Маргарет Чо, Лора Ли, Эндрю Бауэн

О фильме:
Кучерявая заложница - это пародия на трилогию фильмов "Заложница".
Жизнь агента Брайана Миллерса (Ли Тергесен) полна лишений - он лишился работы в ЦРУ, уважения своей семьи, да и вообще - самой семьи, его бывшую жену планирует забрать наглый афро-американскей Деньго Тряс, а дочь... даже дочь может быть отнята и лишена (если она у нее еще есть) невинности. Но будто всего этого мало, во время покупки подарка на день рождения дочки, Брайан привлекает к себе внимание крупного китайско-американского гангстера (Маргарита Хо), главная цель которого - отнять всё и у всех! А все потому, что однажды, у кого-то была забрата очень ценная вещь.

Качество: WEB-DL[720p]
Видео: x264, 1280x530, 23,976кадр/с, ~ 3.9 Мбит/с
Аудио: AC3, 48000 Hz, 2 канала, 192kbit/s Русский
Аудио: AC3, 48000 Hz, 6 каналов, 384kbit/s Английский
Продолжительность: 01:20:45
Перевод: Любительский (двухголосый)[LuckyStrike]
Примечание: Сохранены оригинальные чаптеры
Общее
Уникальный идентификатор                 : 188697289412793236812475191684937778386 (0x8DF5C6A89F7240E3B4695E1B629F84D2)
Полное имя                               : DC++ (закачка)Tooken.2015.720p.WEB-DL.DD5.1.H264.mkv
Формат                                   : Matroska
Версия формата                           : Version 4 / Version 2
Размер файла                             : 2,60 Гбайт
Продолжительность                        : 1 ч. 20 м.
Общий поток                              : 4600 Кбит/сек
Дата кодирования                         : UTC 2015-06-14 15:39:57
Программа кодирования                    : mkvmerge v7.8.0 ('River Man') 32bit built on Mar 27 2015 16:18:02
Библиотека кодирования                   : libebml v1.3.1 + libmatroska v1.4.2
DURATION                                 : 01:20:45.824000000
NUMBER_OF_FRAMES                         : 151432
NUMBER_OF_BYTES                          : 116299776
_STATISTICS_WRITING_APP                  : mkvmerge v7.8.0 ('River Man') 32bit built on Mar 27 2015 16:18:02
_STATISTICS_WRITING_DATE_UTC             : 2015-06-14 15:39:57
_STATISTICS_TAGS                         : BPS DURATION NUMBER_OF_FRAMES NUMBER_OF_BYTES

Видео
Идентификатор                            : 1
Формат                                   : AVC
Формат/Информация                        : Advanced Video Codec
Профиль формата                          : Main@L3.1
Параметр CABAC формата                   : Нет
Параметр ReFrames формата                : 2 кадра
Идентификатор кодека                     : V_MPEG4/ISO/AVC
Продолжительность                        : 1 ч. 20 м.
Битрейт                                  : 3933 Кбит/сек
Ширина                                   : 1280 пикселей
Высота                                   : 530 пикселей
Соотношение сторон                       : 2,40:1
Режим частоты кадров                     : Постоянный
Частота кадров                           : 23,976 кадра/сек
Цветовое пространство                    : YUV
Субдискретизация насыщенности            : 4:2:0
Битовая глубина                          : 8 бит
Тип развёртки                            : Прогрессивная
Бит/(Пиксели*Кадры)                      : 0.242
Размер потока                            : 2,22 Гбайт (85%)
Язык                                     : English
Default                                  : Да
Forced                                   : Нет
Основные цвета                           : BT.709
Характеристики трансфера                 : BT.709
Коэффициенты матрицы                     : BT.709
colour_range                             : Limited

Аудио #1
Идентификатор                            : 2
Формат                                   : AC-3
Формат/Информация                        : Audio Coding 3
Расширение режима                        : CM (complete main)
Параметр Endianness формата              : Big
Идентификатор кодека                     : A_AC3
Продолжительность                        : 1 ч. 20 м.
Вид битрейта                             : Постоянный
Битрейт                                  : 192 Кбит/сек
Каналы                                   : 2 канала
Расположение каналов                     : Front: L R
Частота                                  : 48,0 КГц
Битовая глубина                          : 16 бит
Метод сжатия                             : С потерями
Размер потока                            : 111 Мбайт (4%)
Заголовок                                : [LuckyStrike]
Язык                                     : Russian
Default                                  : Да
Forced                                   : Да

Аудио #2
Идентификатор                            : 3
Формат                                   : AC-3
Формат/Информация                        : Audio Coding 3
Расширение режима                        : CM (complete main)
Параметр Endianness формата              : Big
Идентификатор кодека                     : A_AC3
Продолжительность                        : 1 ч. 20 м.
Вид битрейта                             : Постоянный
Битрейт                                  : 384 Кбит/сек
Каналы                                   : 6 каналов
Расположение каналов                     : Front: L C R, Side: L R, LFE
Частота                                  : 48,0 КГц
Битовая глубина                          : 16 бит
Метод сжатия                             : С потерями
Размер потока                            : 222 Мбайт (8%)
Язык                                     : English
Default                                  : Нет
Forced                                   : Нет

Меню
00:00:00.000                             : en:1
00:10:14.000                             : en:2
00:20:30.000                             : en:3
00:31:32.000                             : en:4
00:39:22.000                             : en:5
00:52:00.000                             : en:6
01:02:38.000                             : en:7
01:11:42.000                             : en:8
01:12:34.000                             : en:9









реклама партнёра


Вернуться к началу
 Профиль  
 
   Похожие торренты   Автор   Торрент   Размер 
В этой теме нет новых непрочитанных сообщений. Кучерявая заложница / Tooken (Джон Мэллори Ашер) [Комедия, 2015] WEB-DLRip, dvo

Dracon

24 | 0

1.38 ГБ

В этой теме нет новых непрочитанных сообщений. Азбука смерти 2 / ABCs of Death 2 (Родни Ашер, Джулиан Бэррэтт ... (26)) [Комедия, Ужасы, 2014] HDRip, dvo

Dracon

0 | 2

2.06 ГБ

В этой теме нет новых непрочитанных сообщений. Каникулы / Vacation (Джон Фрэнсис Дейли, Джонатан М. Голдштейн) [комедия, приключения, 2015] WEBRip 720p, dub [звук с TS]

Dracon

11675 | 588

1.48 ГБ

В этой теме нет новых непрочитанных сообщений. Каникулы / Vacation (Джон Фрэнсис Дейли, Джонатан М. Голдштейн) [комедия, приключения, 2015] BDRip 720p, Dub [iTunes]

Dracon

82 | 8

4.64 ГБ

В этой теме нет новых непрочитанных сообщений. Касл / Castle [08х01-06 из 23] (Роб Боуман, Джон Терлески, Билл Роу,) [2015, драма, комедия, криминал, детектив, WEB-DL 720p | LostFilm]

Nickolas3435

20 | 46

7.58 ГБ

В этой теме нет новых непрочитанных сообщений. Фокус / Focus (Гленн Фикарра, Джон Рекуа) [драма, мелодрама, комедия, криминал, 2015] WEB-DLRip 720p, Dub+Sub [iTunes]

Dracon

0 | 0

3.63 ГБ

В этой теме нет новых непрочитанных сообщений. На грани / The Brink [S01] (Джон Полл, Джей Роуч, Скотт Уинант) [Комедия, 2015] HDTVRip 720p [Gears Media]

Dracon

39 | 29

6.82 ГБ


Начать новую тему Ответить на тему  [ 1 сообщение ] 




Для Мосгорсуда, Роскомнадзора и рекламодателей:: mosgorsud-torrent[собачка]yandex.ru