Торрент файл
скачать торрент магнет ссылка Добавлен: 14 июн 2015, 10:37
Размер: 2.05 ГБ
Сидеров: 0
Личеров: 0
Статус: (salma3)
Автор

СообщениеДобавлено: 14 июн 2015, 10:37 

Не в сети
Зам. Админа
Аватара пользователя
Дата регистрации:
02 дек 2010, 12:39
Спасибо: 12588 / 214
Сообщения: 28049
Год выхода: 2014
Жанр: драма, комедия
Режиссер: Грен Уэллс
В ролях: Зои Кравиц, Роберт Патрик, Дев Патель, Роберт Шиэн, Кира Седжвик, Мэтт Риди, Али Хиллис, Купер Рот, Эрик Мэзени, Росс Галло

О фильме:
Сюжет рассказывает о Винсенте — молодом человеке с синдромом Туретта — множественными моторными тиками, периодически проявляющими на лице. У Винсента умерла мать, и он остался на попечении у своего отца, занимающегося политикой. Он переезжает к отцу, который как раз все свое время посвящает политической кампании. В новом доме Винсент знакомится с девушкой-анорексичкой и соседом по комнате. Вместе они решают отправиться в путешествие к океану, дабы отвезти туда прах покойной мамы Винсента.
    

Качество: WEB-DLRip [Исх. WEB-DL 720p]
Видео: 704x384 (1.83:1), 23.976 fps, XviD MPEG-4 ~2038 kbps avg, 0.32 bit/pixel
Audio #1: 48 kHz, AC3 Dolby Digital, 3/2 (L,C,R,l,r) + LFE ch, ~448 kbps (Русский)
Audio #2: 48 kHz, AC3 Dolby Digital, 3/2 (L,C,R,l,r) + LFE ch, ~384 kbps (Английский)
Продолжительность: 01:41:35
Перевод: Любительский (многоголосный) [Гараж Дубляж]
Субтитры: Английские (внешние .srt*)
Дополнительно: Присутствует ненормативная лексика

Общее
Полное имя                               : S:ФильмыВнутренняя дорога. 2014. WEB-DLRip. (AleksSin)Внутренняя дорога. 2014. WEB-DLRip. (AleksSin).avi
Формат                                   : AVI
Формат/Информация                        : Audio Video Interleave
Профиль формата                          : OpenDML
Размер файла                             : 2,05 Гбайт
Продолжительность                        : 1 ч. 41 м.
Общий поток                              : 2888 Кбит/сек
Программа кодирования                    : VirtualDubMod 1.5.10.3 (build 2550/release)
Библиотека кодирования                   : VirtualDubMod build 2550/release

Видео
Идентификатор                            : 0
Формат                                   : MPEG-4 Visual
Профиль формата                          : Advanced Simple@L5
Параметр BVOP формата                    : 1
Параметр QPel формата                    : Нет
Параметр GMC формата                     : Без точки перехода
Параметр матрицы формата                 : Выборочная
Идентификатор кодека                     : XVID
Идентификатор кодека/Подсказка           : XviD
Продолжительность                        : 1 ч. 41 м.
Битрейт                                  : 2038 Кбит/сек
Ширина                                   : 704 пикселя
Высота                                   : 384 пикселя
Соотношение сторон                       : 1,85:1
Частота кадров                           : 23,976 кадра/сек
Цветовое пространство                    : YUV
Субдискретизация насыщенности            : 4:2:0
Битовая глубина                          : 8 бит
Тип развёртки                            : Прогрессивная
Метод сжатия                             : С потерями
Бит/(Пиксели*Кадры)                      : 0.314
Размер потока                            : 1,45 Гбайт (71%)
Библиотека кодирования                   : XviD 73

Аудио #1
Идентификатор                            : 1
Формат                                   : AC-3
Формат/Информация                        : Audio Coding 3
Расширение режима                        : CM (complete main)
Параметр Endianness формата              : Big
Идентификатор кодека                     : 2000
Продолжительность                        : 1 ч. 41 м.
Вид битрейта                             : Постоянный
Битрейт                                  : 448 Кбит/сек
Каналы                                   : 6 каналов
Расположение каналов                     : Front: L C R, Side: L R, LFE
Частота                                  : 48,0 КГц
Битовая глубина                          : 16 бит
Метод сжатия                             : С потерями
Размер потока                            : 326 Мбайт (16%)
Выравнивание                             : Разделение по промежуткам
Продолжительность промежутка             : 42  мс. (1,00 видеокадр)
Время предзагрузки промежутка            : 500  мс.

Аудио #2
Идентификатор                            : 2
Формат                                   : AC-3
Формат/Информация                        : Audio Coding 3
Расширение режима                        : CM (complete main)
Параметр Endianness формата              : Big
Идентификатор кодека                     : 2000
Продолжительность                        : 1 ч. 41 м.
Вид битрейта                             : Постоянный
Битрейт                                  : 384 Кбит/сек
Каналы                                   : 6 каналов
Расположение каналов                     : Front: L C R, Side: L R, LFE
Частота                                  : 48,0 КГц
Битовая глубина                          : 16 бит
Метод сжатия                             : С потерями
Размер потока                            : 279 Мбайт (13%)
Выравнивание                             : Разделение по промежуткам
Продолжительность промежутка             : 42  мс. (1,00 видеокадр)
Время предзагрузки промежутка            : 500  мс.










реклама партнёра


Вернуться к началу
 Профиль  
 
   Похожие торренты   Автор   Торрент   Размер 
В этой теме нет новых непрочитанных сообщений. Внутренняя дорога / The Road Within (Грен Уэллс) [Драма, Комедия, 2014] WEB-DLRip [Гараж Дубляж]

Dracon

140 | 32

1.52 ГБ

В этой теме нет новых непрочитанных сообщений. Внутренняя дорога / The Road Within (Грен Уэллс / Gren Wells) [2014г., драма, комедия, WEB-DL 720p] [Гараж Дубляж]

Alfredovich

496 | 20

3.45 ГБ

В этой теме нет новых непрочитанных сообщений. Вечность / Forever [s01х01] (Мэтью Миллер) [2014, фантастика, драма, HDTVRip 720p | Гараж Дубляж]

Nickolas3435

100 | 14

1.57 ГБ

В этой теме нет новых непрочитанных сообщений. Лок / Locke [триллер, драма, 2013] HDRip [Гараж Дубляж]

Dracon

7 | 2

1.36 ГБ

В этой теме нет новых непрочитанных сообщений. Лок / Locke [триллер, драма, 2013] BDRip 1080p [Гараж Дубляж]

Dracon

256 | 16

8.42 ГБ

В этой теме нет новых непрочитанных сообщений. Лок / Locke [триллер, драма, 2013] BDRip 720p [Гараж Дубляж]

Dracon

343 | 17

5.14 ГБ

В этой теме нет новых непрочитанных сообщений. Дорога на Сиэтл / Seattle Road [драма, мелодрама, 2016] WEB-DLRip, Mvo

salma3

136 | 22

1.37 ГБ


Начать новую тему Ответить на тему  [ 1 сообщение ] 




Для Мосгорсуда, Роскомнадзора и рекламодателей:: mosgorsud-torrent[собачка]yandex.ru