Торрент файл
скачать торрент магнет ссылка Добавлен: 09 июн 2015, 16:39
Размер: 2.27 ГБ
Сидеров: 692
Личеров: 39
Статус: (salma3)
Автор

СообщениеДобавлено: 09 июн 2015, 16:39 

Не в сети
Зам. Админа
Аватара пользователя
Дата регистрации:
02 дек 2010, 12:39
Спасибо: 12461 / 214
Сообщения: 27968
Год выхода: 2015
Жанр: триллер, драма, криминал
Режиссер: Кристофер Залла
В ролях: Роб Лоу, Пас Вега, Кэндис Берген, Сейшелл Гэбриел, Джуд Чикколелла, Мишель Херд, Уолтер ФонтЛеРой, Сони Брингас, Zachary Rifkin, Austin Wakefield

О фильме: В июле 2009 года Бен Новак, унаследовавший сеть отелей Fontainebleau, был жестоко убит в номере отеля в пригороде Нью-Йорка. Своими ужасающими садистскими деталями страшное убийство вызвало мгновенный интерес средств массовой информации. Говорили, что зверское убийство было спланировано женщиной, пытавшейся уничтожить своего мужа и завладеть его состоянием.



Выпущено: США / PeaceOut Productions, Silver Screen Pictures, Sony Pictures Television
Продолжительность: 01:26:15
Озвучивание: Профессиональное (многоголосое) [iTunes]

Формат: MKV (x264)
Качество: WEB-DL 720p
Видео: 3000 kb/s, 1280x720
Аудио: Russian / English: AC3, 384 kb/s (6 ch)
Субтитры: Нет
Дополнительно: Сохранены оригинальные чаптеры.
Размер: 2.27 GB
Скачать: Сэмпл


Общее
Уникальный идентификатор : 182472285826662886414135095181257696890 (0x8946E24933122800B73A564F5933667A)
Полное имя : F:Раздача HDKrasivaja.i.bezumnaja.2015.P.WEB-DL.720p.mkv
Формат : Matroska
Версия формата : Version 4 / Version 2
Размер файла : 2,27 Гбайт
Продолжительность : 1 ч. 26 м.
Общий поток : 3749 Кбит/сек
Название фильма : REALITYKINGS ™
Дата кодирования : UTC 2015-06-09 04:59:37
Программа кодирования : mkvmerge v7.7.0 ('Six Voices') 32bit built on Feb 28 2015 23:23:00
Библиотека кодирования : Lavf55.12.0
DURATION : 01:26:14.656000000
NUMBER_OF_FRAMES : 161708
NUMBER_OF_BYTES : 248383488
_STATISTICS_WRITING_APP : mkvmerge v7.7.0 ('Six Voices') 32bit built on Feb 28 2015 23:23:00
_STATISTICS_WRITING_DATE_UTC : 2015-06-09 04:59:37
_STATISTICS_TAGS : BPS DURATION NUMBER_OF_FRAMES NUMBER_OF_BYTES

Видео
Идентификатор : 1
Формат : AVC
Формат/Информация : Advanced Video Codec
Профиль формата : High@L4.1
Параметр CABAC формата : Да
Параметр ReFrames формата : 4 кадра
Идентификатор кодека : V_MPEG4/ISO/AVC
Продолжительность : 1 ч. 26 м.
Битрейт : 3000 Кбит/сек
Ширина : 1280 пикселей
Высота : 720 пикселей
Соотношение сторон : 16:9
Режим частоты кадров : Постоянный
Частота кадров : 23,976 кадра/сек
Цветовое пространство : YUV
Субдискретизация насыщенности : 4:2:0
Битовая глубина : 8 бит
Тип развёртки : Прогрессивная
Бит/(Пиксели*Кадры) : 0.136
Размер потока : 1,76 Гбайт (78%)
Библиотека кодирования : x264 core 142 r2479 dd79a61
Настройки программы : cabac=1 / ref=1 / deblock=1:0:0 / analyse=0x3:0x113 / me=hex / subme=2 / psy=1 / psy_rd=1.00:0.00 / mixed_ref=0 / me_range=16 / chroma_me=1 / trellis=0 / 8x8dct=1 / cqm=0 / deadzone=21,11 / fast_pskip=1 / chroma_qp_offset=0 / threads=6 / lookahead_threads=2 / sliced_threads=0 / nr=0 / decimate=1 / interlaced=0 / bluray_compat=0 / constrained_intra=0 / bframes=3 / b_pyramid=2 / b_adapt=1 / b_bias=0 / direct=1 / weightb=1 / open_gop=0 / weightp=1 / keyint=240 / keyint_min=24 / scenecut=40 / intra_refresh=0 / rc_lookahead=10 / rc=abr / mbtree=1 / bitrate=3000 / ratetol=1.0 / qcomp=0.60 / qpmin=0 / qpmax=69 / qpstep=4 / vbv_maxrate=62500 / vbv_bufsize=78125 / nal_hrd=none / filler=0 / ip_ratio=1.40 / aq=1:1.00
Default : Да
Forced : Нет
Основные цвета : BT.709
Характеристики трансфера : BT.709
Коэффициенты матрицы : BT.709
DURATION : 01:26:30.479000000
NUMBER_OF_FRAMES : 124447
NUMBER_OF_BYTES : 1934265940
_STATISTICS_WRITING_APP : mkvmerge v7.7.0 ('Six Voices') 32bit built on Feb 28 2015 23:23:00
_STATISTICS_WRITING_DATE_UTC : 2015-06-09 04:59:37
_STATISTICS_TAGS : BPS DURATION NUMBER_OF_FRAMES NUMBER_OF_BYTES

Аудио #1
Идентификатор : 2
Формат : AC-3
Формат/Информация : Audio Coding 3
Расширение режима : CM (complete main)
Параметр Endianness формата : Big
Идентификатор кодека : A_AC3
Продолжительность : 1 ч. 26 м.
Вид битрейта : Постоянный
Битрейт : 384 Кбит/сек
Каналы : 6 каналов
Расположение каналов : Front: L C R, Side: L R, LFE
Частота : 48,0 КГц
Битовая глубина : 16 бит
Метод сжатия : С потерями
Задержка видео : -83 мс.
Размер потока : 238 Мбайт (10%)
Заголовок : Русский: AC3, 384 Kb/s (6 ch)
Язык : English
Default : Да
Forced : Да
DURATION : 01:26:14.656000000
NUMBER_OF_FRAMES : 161708
NUMBER_OF_BYTES : 248383488
_STATISTICS_WRITING_APP : mkvmerge v7.7.0 ('Six Voices') 32bit built on Feb 28 2015 23:23:00
_STATISTICS_WRITING_DATE_UTC : 2015-06-09 04:59:37
_STATISTICS_TAGS : BPS DURATION NUMBER_OF_FRAMES NUMBER_OF_BYTES

Аудио #2
Идентификатор : 3
Формат : AC-3
Формат/Информация : Audio Coding 3
Расширение режима : CM (complete main)
Параметр Endianness формата : Big
Идентификатор кодека : A_AC3
Продолжительность : 1 ч. 26 м.
Вид битрейта : Постоянный
Битрейт : 384 Кбит/сек
Каналы : 6 каналов
Расположение каналов : Front: L C R, Side: L R, LFE
Частота : 48,0 КГц
Битовая глубина : 16 бит
Метод сжатия : С потерями
Размер потока : 238 Мбайт (10%)
Заголовок : Surround
Язык : English
Default : Нет
Forced : Нет

Меню
00:00:00.000 : :1
00:04:10.083 : :2
00:09:49.089 : :3
00:14:50.098 : :4
00:22:13.083 : :5
00:26:40.100 : :6
00:32:01.129 : :7
00:37:58.153 : :8
00:41:30.156 : :9
00:43:34.155 : :10
00:47:28.139 : :11
00:49:56.121 : :12
00:57:41.086 : :13
01:03:42.155 : :14
01:10:23.139 : :15
01:16:57.158 : :16







реклама партнёра


Вернуться к началу
 Профиль  
 
   Похожие торренты   Автор   Торрент   Размер 
В этой теме нет новых непрочитанных сообщений. Красивая и безумная / Beautiful & Twisted (Кристофер Залла) [Триллер, Драма, Криминал, 2015] WEB-DL 1080p, Mvo+Sub [iTunes]

Dracon

0 | 0

3.49 ГБ

В этой теме нет новых непрочитанных сообщений. Красивая и Безумная / Beautiful & Twisted (Кристофер Залла) [Триллер, Драма, Криминал, 2015] WEB-DLRip, Mvo [iTunes]

Dracon

1 | 0

1.37 ГБ

В этой теме нет новых непрочитанных сообщений. Красивая и Безумная / Beautiful & Twisted (Кристофер Залла) [Триллер, Драма, Криминал, 2015] WEB-DL 1080p, Mvo [iTunes]

Dracon

111 | 3

3.49 ГБ

В этой теме нет новых непрочитанных сообщений. Безумная и прекрасная / Crazy & Beautiful [Драма, мелодрама, 2001] WEB-DL 720p, Dvo+Sub

salma3

91 | 9

3.39 ГБ

В этой теме нет новых непрочитанных сообщений. Миссия невыполнима: Племя изгоев / Mission: Impossible - Rogue Nation (Кристофер МакКуорри) [2015, боевик, триллер, приключения, BDRip 720p] Dub [iTunes]

Dracon

323 | 6

7.35 ГБ

В этой теме нет новых непрочитанных сообщений. Приключения Джо Грязнули 2 / Joe Dirt 2: Beautiful Loser [Комедия, 2015] BDRip 720p, Mvo [iTunes]

Dracon

526 | 42

5.76 ГБ

В этой теме нет новых непрочитанных сообщений. Легенда / Legend [Триллер, драма, криминал, 2015] BDRip 720p, dub [iTunes]

Dracon

11088 | 1602

4.72 ГБ


Начать новую тему Ответить на тему  [ 1 сообщение ] 




Для Мосгорсуда, Роскомнадзора и рекламодателей:: mosgorsud-torrent[собачка]yandex.ru