Торрент файл
скачать торрент магнет ссылка Добавлен: 04 июн 2015, 12:52
Размер: 1.69 ГБ
Сидеров: 39
Личеров: 3
Статус: (salma3)
Автор

СообщениеДобавлено: 04 июн 2015, 12:52 

В сети
Супермодератор
Аватара пользователя
Дата регистрации:
15 фев 2012, 16:44
Возраст: 28
Спасибо: 6584 / 2144
Сообщения: 44093
Паутина желаний / Web of Desire

Год выпуска: 2009
Жанр: триллер, драма, мелодрама
Режиссер: Марк Коул

В ролях: Дина Мейер, Клодетт Минк, Адриан Хью, Уильям Б. Дэвис, Винсент Гэйл, Терри Чен, Джеймс Кирк, Джулия Тортолано, Куинн Лорд, Чад Коул

Описание:
Амбициозная доктор ставит под угрозу риска свою карьеру и семейное благополучие, когда начинает изнывать от страсти и желания к знакомой из интернета.



Страна: Канада, США
Продолжительность: 01:24:07
Перевод: Профессиональный (многоголосый, закадровый)

Файл
Качество: HDTVRip-AVC
Формат файла: MKV
Видео кодек: H.264
Аудио кодек: MP3
Видео: 1280x720 (16:9), 25.000 fps, AVC (х264), , ~ 2 631 Kbps, 0.114 bit/pixel
Аудио: 48.0 KHz, MP3, 2 channels, 192 Kbps


General
Unique ID : 219662025409772672521166683490407005505 (0xA5415E0351A67D3CA8E8C11CD625BD41)
Complete name : D:\Films\Paytina.strasti .mkv
Format : Matroska
Format version : Version 1
File size : 1.69 GiB
Duration : 1h 24mn
Overall bit rate : 2 880 Kbps
Encoded date : UTC 2012-08-21 11:44:19
Writing application : AVSMatroskaFile
Writing library : libebml v0.7.7 + libmatroska v0.8.1

Video
ID : 1
Format : AVC
Format/Info : Advanced Video Codec
Format profile :
Format settings, CABAC : Yes
Format settings, ReFrames : 1 frame
Codec ID : V_MPEG4/ISO/AVC
Duration : 1h 24mn
Bit rate : 2 631 Kbps
Width : 1 280 pixels
Height : 720 pixels
Display aspect ratio : 16:9
Frame rate mode : Constant
Frame rate : 25.000 fps
Color space : YUV
Chroma subsampling : 4:2:0
Bit depth : 8 bits
Scan type : Progressive
Bits/(Pixel*Frame) : 0.114
Stream size : 1.55 GiB (91%)
Default : Yes
Forced : No

Audio
ID : 2
Format : MPEG Audio
Format version : Version 1
Format profile : Layer 3
Codec ID : A_MPEG/L3
Codec ID/Hint : MP3
Duration : 1h 24mn
Bit rate mode : Constant
Bit rate : 192 Kbps
Channel(s) : 2 channels
Sampling rate : 48.0 KHz
Compression mode : Lossy
Stream size : 116 MiB (7%)
Writing library : LAMELAME_MAJOR_VERSI
Default : Yes
Forced : No



_________________
Проголосуй за трекер Открытый торрент трекер - RUS-MEDIA.ORG

Проголосуй Открытый торрент трекер - RUS-MEDIA.ORG



реклама партнёра


Вернуться к началу
 Профиль Отправить личное сообщение  
 
   Похожие торренты   Автор   Торрент   Размер 
В этой теме нет новых непрочитанных сообщений. Цветок желаний / Цветок папоротника [01-16 из 16] (Сергей Лялин) [Мелодрама, 2015] HDTVRip

Dracon

192 | 79

8.63 ГБ

В этой теме нет новых непрочитанных сообщений. Эпоха желаний / Empire of Lust [боевик, драма, мелодрама, 2015] WEB-DLRip, Dvo

salma3

2 | 2

1.44 ГБ

В этой теме нет новых непрочитанных сообщений. Жрица страсти / Woman of Desire [драма, триллер, 1993] DVDRip, Avo

salma3

506 | 16

1.37 ГБ

В этой теме нет новых непрочитанных сообщений. Камень желаний / Shorts [Комедия, семейный, детский, 2009] BDRip 1080р, Mvo

salma3

197 | 53

8.21 ГБ

В этой теме нет новых непрочитанных сообщений. Паутина смерти / Satsujin Net [ужасы, триллер, 2004] DVDRip, Mvo

salma3

19 | 2

690.3 МБ

В этой теме нет новых непрочитанных сообщений. Тёмная паутина / Darkweb [боевик, триллер, 2016] HDRip, Avo

salma3

891 | 52

1.39 ГБ

В этой теме нет новых непрочитанных сообщений. Цветок желаний / Цветок папоротника [01-16 из 16] (Сергей Лялин) [Мелодрама, 2015] HDTV 1080i

Dracon

30 | 13

43.25 ГБ


Начать новую тему Ответить на тему  [ 1 сообщение ] 




Для Мосгорсуда, Роскомнадзора и рекламодателей:: mosgorsud-torrent[собачка]yandex.ru