Торрент файл
скачать торрент магнет ссылка Добавлен: 03 июн 2015, 14:23
Размер: 2.72 ГБ
Сидеров: 20
Личеров: 3
Автор

СообщениеДобавлено: 03 июн 2015, 14:23 

В сети
Супермодератор
Аватара пользователя
Дата регистрации:
15 фев 2012, 16:44
Возраст: 27
Спасибо: 5143 / 2090
Сообщения: 17513
MvoНазвание: Голубая сталь (Вороненая сталь)
Оригинальное название: Blue Steel
Год выпуска: 1989
Жанр: Триллер, детектив, боевик, драма
Выпущено: США, Lightning Pictures, Precision Films, Mack-Taylor Productions
Продолжительность: 01:42:00
Перевод: Профессиональный (многоголосый, закадровый) x2, Профессиональный (двухголосый, закадровый), авторский (одноголосый, закадровый) x2
Субтитры: отсутствуют

Режиссер: Кэтрин Бигелоу

В ролях: Джейми Ли Кёртис, Рон Сильвер, Клэнси Браун, Элизабет Пенья, Луиз Флетчер, Маркус Флэннэгэн, Мэри Мара, Ричард Дженкинс, Кевин Данн, Филип Боско

О фильме: Офицер полиции Миган только что закончила специальную полицейскую школу. И в ходе первого же дежурства револьвер грабителя, застреленного ею «по всем правилам», случайно попадает в руки финансового брокера Юджина. В связи с исчезновением важнейшей улики возбуждается расследование «проступка» Миган, а в городе начинается серия убийств, связанных с ее именем. Одержимость оружием Юджина, «безупречного» мужчины с Уолл-Стрит, становится смертельной ловушкой для Миган, которая завязывает с ним романтические отношения. Так как именно он и оказывается маньяком-убийцей.



Качество: BDRip-AVC
Видео: AVC, 1024x576 (16:9), 23.976 fps, 2 854 Kbps (0.202 bit/pixel)
Аудио #1: AC-3, 48.0 KHz, 2 ch, 192 Kbps, CBR (Russian) - многоголосый
Аудио #2: AC-3, 48.0 KHz, 2 ch, 192 Kbps, CBR (Russian) - многоголосый (СТС)
Аудио #3: AC-3, 48.0 KHz, 2 ch, 192 Kbps, CBR (Russian) - двухголосый
Аудио #4: AC-3, 48.0 KHz, 2 ch, 192 Kbps, CBR (Russian) - авторский А.Гаврилов
Аудио #5: AC-3, 48.0 KHz, 2 ch, 192 Kbps, CBR (Russian) - авторский П.Карцев
Релиз от: FAGOT100

Формат : Matroska
Версия формата : Version 2
Размер файла : 2,72 Гбайт
Продолжительность : 1 ч. 42 м.
Общий поток : 3815 Кбит/сек
Название фильма : Голубая Сталь / Blue Steel 1989 BDRip -- Fagot100
Дата кодирования : UTC 2015-06-03 02:37:26
Программа кодирования : mkvmerge v5.3.0 ('I could have danced') built on Feb 9 2012 10:38:07
Библиотека кодирования : libebml v1.2.3 + libmatroska v1.3.0
Attachment : Yes

Видео
Идентификатор : 1
Формат : AVC
Формат/Информация : Advanced Video Codec
Профиль формата : High@L4.1
Параметр CABAC формата : Да
Параметр ReFrames формата : 9 кадров
Идентификатор кодека : V_MPEG4/ISO/AVC
Продолжительность : 1 ч. 42 м.
Битрейт : 2854 Кбит/сек
Ширина : 1024 пикселя
Высота : 576 пикселей
Соотношение сторон : 16:9
Режим частоты кадров : Постоянный
Частота кадров : 23,976 кадра/сек
Цветовое пространство : YUV
Субдискретизация насыщенности : 4:2:0
Битовая глубина : 8 бит
Тип развёртки : Прогрессивная
Бит/(Пиксели*Кадры) : 0.202
Размер потока : 1,98 Гбайт (73%)
Библиотека кодирования : x264 core 146 r2538 121396c
Настройки программы : cabac=1 / ref=9 / deblock=1:-2:-2 / analyse=0x3:0x133 / me=umh / subme=10 / psy=1 / psy_rd=1.00:0.00 / mixed_ref=1 / me_range=32 / chroma_me=1 / trellis=2 / 8x8dct=1 / cqm=0 / deadzone=21,11 / fast_pskip=0 / chroma_qp_offset=-2 / threads=12 / lookahead_threads=2 / sliced_threads=0 / nr=0 / decimate=1 / interlaced=0 / bluray_compat=0 / constrained_intra=0 / bframes=6 / b_pyramid=2 / b_adapt=2 / b_bias=0 / direct=3 / weightb=1 / open_gop=0 / weightp=2 / keyint=240 / keyint_min=23 / scenecut=40 / intra_refresh=0 / rc_lookahead=60 / rc=2pass / mbtree=1 / bitrate=2854 / ratetol=1.0 / qcomp=0.60 / qpmin=0 / qpmax=69 / qpstep=4 / cplxblur=20.0 / qblur=0.5 / ip_ratio=1.40 / aq=1:1.00
Default : Да
Forced : Нет

Аудио #1
Идентификатор : 2
Формат : AC-3
Формат/Информация : Audio Coding 3
Расширение режима : CM (complete main)
Параметр Endianness формата : Big
Идентификатор кодека : A_AC3
Продолжительность : 1 ч. 42 м.
Вид битрейта : Постоянный
Битрейт : 192 Кбит/сек
Каналы : 2 канала
Расположение каналов : Front: L R
Частота : 48,0 КГц
Битовая глубина : 16 бит
Метод сжатия : С потерями
Размер потока : 140 Мбайт (5%)
Заголовок : MVO
Язык : Russian
Default : Да
Forced : Нет

Аудио #2
Идентификатор : 3
Формат : AC-3
Формат/Информация : Audio Coding 3
Расширение режима : CM (complete main)
Параметр Endianness формата : Big
Идентификатор кодека : A_AC3
Продолжительность : 1 ч. 42 м.
Вид битрейта : Постоянный
Битрейт : 192 Кбит/сек
Каналы : 2 канала
Расположение каналов : Front: L R
Частота : 48,0 КГц
Битовая глубина : 16 бит
Метод сжатия : С потерями
Задержка видео : 1 с. 500 мс.
Размер потока : 140 Мбайт (5%)
Заголовок : MVO (CTC)
Язык : Russian
Default : Нет
Forced : Нет

Аудио #3
Идентификатор : 4
Формат : AC-3
Формат/Информация : Audio Coding 3
Расширение режима : CM (complete main)
Параметр Endianness формата : Big
Идентификатор кодека : A_AC3
Продолжительность : 1 ч. 42 м.
Вид битрейта : Постоянный
Битрейт : 192 Кбит/сек
Каналы : 2 канала
Расположение каналов : Front: L R
Частота : 48,0 КГц
Битовая глубина : 16 бит
Метод сжатия : С потерями
Задержка видео : 1 с. 500 мс.
Размер потока : 140 Мбайт (5%)
Заголовок : DVO
Язык : Russian
Default : Нет
Forced : Нет

Аудио #4
Идентификатор : 5
Формат : AC-3
Формат/Информация : Audio Coding 3
Расширение режима : CM (complete main)
Параметр Endianness формата : Big
Идентификатор кодека : A_AC3
Продолжительность : 1 ч. 42 м.
Вид битрейта : Постоянный
Битрейт : 192 Кбит/сек
Каналы : 2 канала
Расположение каналов : Front: L R
Частота : 48,0 КГц
Битовая глубина : 16 бит
Метод сжатия : С потерями
Размер потока : 140 Мбайт (5%)
Заголовок : AVO (Андрей Гаврилов)
Язык : Russian
Default : Нет
Forced : Нет

Аудио #5
Идентификатор : 6
Формат : AC-3
Формат/Информация : Audio Coding 3
Расширение режима : CM (complete main)
Параметр Endianness формата : Big
Идентификатор кодека : A_AC3
Продолжительность : 1 ч. 42 м.
Вид битрейта : Постоянный
Битрейт : 192 Кбит/сек
Каналы : 2 канала
Расположение каналов : Front: L R
Частота : 48,0 КГц
Битовая глубина : 16 бит
Метод сжатия : С потерями
Размер потока : 140 Мбайт (5%)
Заголовок : AVO (Пётр Карцев)
Язык : Russian
Default : Нет
Forced : Нет

Меню
00:00:00.000 : :Chapter 01
00:06:23.883 : :Chapter 02
00:11:40.950 : :Chapter 03
00:19:09.022 : :Chapter 04
00:24:54.534 : :Chapter 05
00:33:24.710 : :Chapter 06
00:36:35.109 : :Chapter 07
00:42:46.647 : :Chapter 08
00:48:23.108 : :Chapter 09
00:55:14.643 : :Chapter 10
00:59:40.285 : :Chapter 11
01:05:20.917 : :Chapter 12
01:12:55.287 : :Chapter 13
01:22:16.555 : :Chapter 14
01:30:17.537 : :Chapter 15
01:41:58.070 : :Chapter 16





_________________



реклама партнёра


Вернуться к началу
 Профиль Отправить личное сообщение  
 
   Похожие торренты   Автор   Торрент   Размер 
В этой теме нет новых непрочитанных сообщений. Голубая сталь / Вороненая сталь / Blue Steel [Боевик, триллер, драма, криминал, 1989] BDRip 720p, Dvo+Avo

salma3

15 | 3

4.37 ГБ

В этой теме нет новых непрочитанных сообщений. Мистер Сталь / Сталь / Steel [фантастика, боевик, криминал, 1997] DVDRip, Dub+Mvo

salma3

138 | 9

1.46 ГБ

В этой теме нет новых непрочитанных сообщений. Огненное кольцо 2: Огонь и сталь / Ring of Fire II: Blood and Steel [Боевик, драма, 1993] DVDRip, Mvo

salma3

17 | 1

1.37 ГБ

В этой теме нет новых непрочитанных сообщений. Ржавая сталь / Rusty Steel [приключения, 2013] SATRip, Dvo [НТВ+]

salma3

41 | 2

1.36 ГБ

В этой теме нет новых непрочитанных сообщений. Ржавая сталь / Rusty Steel [приключения, 2013] HDTVRip 720p, Dvo [НТВ+]

Dracon

251 | 12

2.48 ГБ

В этой теме нет новых непрочитанных сообщений. Голубая кровь / Blue Bloods / 2 сезон 1-22 серии из 22 [Драма, криминал, 2011] WEB-DLRip, Dvo [CBS Drama]

salma3

27 | 44

8.67 ГБ

В этой теме нет новых непрочитанных сообщений. Голубая лагуна / Blue Lagoon: The Awakening [Драма, мелодрама, приключения, 2012] HDTVRip 1080p, Mvo

salma3

122 | 10

3.36 ГБ


Начать новую тему Ответить на тему  [ 1 сообщение ] 




Для Мосгорсуда, Роскомнадзора и рекламодателей:: mosgorsud-torrent[собачка]yandex.ru