Торрент файл
скачать торрент магнет ссылка Добавлен: 31 май 2015, 12:25
Размер: 2.18 ГБ
Сидеров: 104
Личеров: 7
Статус: (salma3)
Автор

СообщениеДобавлено: 31 май 2015, 12:25 

Не в сети
Зам. Админа
Аватара пользователя
Дата регистрации:
02 дек 2010, 12:39
Спасибо: 12623 / 214
Сообщения: 28012
Год выпуска: 2015
Жанр: Драма, мелодрама, экранизация
Выпущено: США, Focus Features, Michael De Luca Productions, Trigger Street Productions
Режиссер: Сэм Тейлор-Джонсон
В ролях: Дакота Джонсон, Джейми Дорнан, Дженнифер Или, Макс Мартини, Люк Граймс, Элоиза Мамфорд, Марша Гей Харден, Рэйчел Скарстен, Рита Ора, Каллум Кит Ренни, Дилан Нил, Эмили Фонда, Энн Мари ДеЛуис, Эндрю Эйрли, Виктор Расук

О фильме: В центре сюжета сложные взаимоотношения выпускницы колледжа Анастейши Стил и молодого бизнесмена Кристиана Грея, который убеждает девушку подписать с ним контракт, позволяющий ему фактически контролировать всю ее жизнь. Условия контракта подразумевают также подписание соглашения о неразглашении, в результате чего Грей фактически может делать с Анастейшей все, что ему заблагорассудится.

Качество: BDRip (AVC) исх. Fifty Shades of Grey 2015 2in1 1080p Blu-ray AVC DTS-HD MA 5.1-PCH
Видео: MPEG-4 AVC, 1529 Кбит/с, 1024x426
Аудио: Русский, английский (AC3, 6 ch, 448 Кбит/с)
Размер: 2.18 ГБ
Продолжительность: 02:08:29
Перевод: Дублированный [лицензия]
Субтитры: Русские, английские
Семпл
x264 [info]: frame I:1615 Avg QP:11.61 size: 83342
x264 [info]: frame P:36220 Avg QP:15.52 size: 22285
x264 [info]: frame B:147014 Avg QP:18.55 size: 3615.

Общее
Уникальный идентификатор : 252249630139373143223882059891375829307 (0xBDC582F92CB1592D8F6EC313788F713B)
Полное имя : C:Fifty.Shades.of.Grey.2015.UNRATED.AVC.by_bog3417.mkv
Формат : Matroska
Версия формата : Version 2
Размер файла : 2,18 Гбайт
Продолжительность : 2 ч. 8 м.
Общий поток : 2427 Кбит/сек
Название фильма : Fifty.Shades.of.Grey.2015.UNRATED.AVC.by_bog3417
Дата кодирования : UTC 2015-05-29 17:10:30
Программа кодирования : mkvmerge v7.9.0 ('Birds') 64bit
Библиотека кодирования : libebml v1.3.1 + libmatroska v1.4.2
DURATION : 02:06:33.460000000
NUMBER_OF_FRAMES : 1404
NUMBER_OF_BYTES : 56176
_STATISTICS_WRITING_APP : mkvmerge v7.9.0 ('Birds') 64bit
_STATISTICS_WRITING_DATE_UTC : 2015-05-29 17:10:30
_STATISTICS_TAGS : BPS DURATION NUMBER_OF_FRAMES NUMBER_OF_BYTES
Видео
Идентификатор : 1
Формат : AVC
Формат/Информация : Advanced Video Codec
Профиль формата : High@L4.1
Параметр CABAC формата : Да
Параметр ReFrames формата : 11 кадров
Идентификатор кодека : V_MPEG4/ISO/AVC
Продолжительность : 2 ч. 8 м.
Битрейт : 1529 Кбит/сек
Ширина : 1024 пикселя
Высота : 426 пикселей
Соотношение сторон : 2,40:1
Режим частоты кадров : Постоянный
Частота кадров : 23,976 кадра/сек
Цветовое пространство : YUV
Субдискретизация насыщенности : 4:2:0
Битовая глубина : 8 бит
Тип развёртки : Прогрессивная
Бит/(Пиксели*Кадры) : 0.146
Размер потока : 1,33 Гбайт (61%)
Заголовок : Fifty.Shades.of.Grey.2015.UNRATED.AVC.by_bog3417
Библиотека кодирования : x264 core 146 r2538 121396c
Настройки программы : cabac=1 / ref=11 / deblock=1:-3:-3 / analyse=0x3:0x33 / me=umh / subme=11 / psy=1 / psy_rd=0.96:0.20 / mixed_ref=1 / me_range=48 / chroma_me=1 / trellis=2 / 8x8dct=1 / cqm=0 / deadzone=21,11 / fast_pskip=0 / chroma_qp_offset=-3 / threads=12 / lookahead_threads=2 / sliced_threads=0 / nr=0 / decimate=0 / interlaced=0 / bluray_compat=0 / constrained_intra=0 / bframes=9 / b_pyramid=2 / b_adapt=2 / b_bias=0 / direct=3 / weightb=1 / open_gop=1 / weightp=2 / keyint=240 / keyint_min=23 / scenecut=40 / intra_refresh=0 / rc_lookahead=80 / rc=2pass / mbtree=1 / bitrate=1529 / ratetol=1.0 / qcomp=0.60 / qpmin=0 / qpmax=69 / qpstep=4 / cplxblur=20.0 / qblur=0.5 / ip_ratio=1.40 / aq=3:0.90
Язык : English
Default : Да
Forced : Нет
DURATION : 02:08:29.744000000
NUMBER_OF_FRAMES : 184849
NUMBER_OF_BYTES : 1473177717
_STATISTICS_WRITING_APP : mkvmerge v7.9.0 ('Birds') 64bit
_STATISTICS_WRITING_DATE_UTC : 2015-05-29 17:10:30
_STATISTICS_TAGS : BPS DURATION NUMBER_OF_FRAMES NUMBER_OF_BYTES
Аудио #1
Идентификатор : 2
Формат : AC-3
Формат/Информация : Audio Coding 3
Расширение режима : CM (complete main)
Параметр Endianness формата : Big
Идентификатор кодека : A_AC3
Продолжительность : 2 ч. 8 м.
Вид битрейта : Постоянный
Битрейт : 448 Кбит/сек
Каналы : 6 каналов
Расположение каналов : Front: L C R, Side: L R, LFE
Частота : 48,0 КГц
Метод сжатия : С потерями
Размер потока : 412 Мбайт (18%)
Заголовок : BD_CEE
Язык : Russian
Default : Да
Forced : Нет
Аудио #2
Идентификатор : 3
Формат : AC-3
Формат/Информация : Audio Coding 3
Расширение режима : CM (complete main)
Параметр Endianness формата : Big
Идентификатор кодека : A_AC3
Продолжительность : 2 ч. 8 м.
Вид битрейта : Постоянный
Битрейт : 448 Кбит/сек
Каналы : 6 каналов
Расположение каналов : Front: L C R, Side: L R, LFE
Частота : 48,0 КГц
Метод сжатия : С потерями
Размер потока : 412 Мбайт (18%)
Язык : English
Default : Нет
Forced : Нет
Текст #1
Идентификатор : 4
Формат : UTF-8
Идентификатор кодека : S_TEXT/UTF8
Идентификатор кодека/Информация : UTF-8 Plain Text
Заголовок : Forced
Язык : Russian
Default : Да
Forced : Нет
Текст #2
Идентификатор : 5
Формат : UTF-8
Идентификатор кодека : S_TEXT/UTF8
Идентификатор кодека/Информация : UTF-8 Plain Text
Заголовок : Full
Язык : Russian
Default : Нет
Forced : Нет
Текст #3
Идентификатор : 6
Формат : UTF-8
Идентификатор кодека : S_TEXT/UTF8
Идентификатор кодека/Информация : UTF-8 Plain Text
Язык : English
Default : Нет
Forced : Нет
Меню
00:00:00.000 : en:00:00:00.000
00:10:25.917 : en:00:10:25.917
00:14:27.158 : en:00:14:27.158
00:20:30.563 : en:00:20:30.563
00:24:04.318 : en:00:24:04.318
00:29:48.578 : en:00:29:48.578
00:35:06.980 : en:00:35:06.980
00:40:17.957 : en:00:40:17.957
00:46:32.748 : en:00:46:32.748
00:50:21.393 : en:00:50:21.393
00:57:04.212 : en:00:57:04.212
01:02:18.985 : en:01:02:18.985
01:06:49.797 : en:01:06:49.797
01:14:27.088 : en:01:14:27.088
01:22:15.264 : en:01:22:15.264
01:31:10.882 : en:01:31:10.882
01:38:13.804 : en:01:38:13.804
01:46:20.165 : en:01:46:20.165
01:53:18.750 : en:01:53:18.750
02:01:41.419 : en:02:01:41.419






реклама партнёра


Вернуться к началу
 Профиль  
 
   Похожие торренты   Автор   Торрент   Размер 
В этой теме нет новых непрочитанных сообщений. Пятьдесят оттенков серого / Fifty Shades of Grey (Сэм Тейлор-Джонсон) [Драма, мелодрама, 2015] BDRip 1080p, Dub+Sub [Лицензия | UNRATED]

Dracon

599 | 47

7.76 ГБ

В этой теме нет новых непрочитанных сообщений. Пятьдесят оттенков серого / Fifty Shades of Grey (Сэм Тейлор-Джонсон) [Драма, мелодрама, 2015] BDRip 1080p, Dub [iTunes | UNRATED]

Dracon

334 | 18

9.09 ГБ

В этой теме нет новых непрочитанных сообщений. Пятьдесят оттенков серого / Fifty Shades of Grey (Сэм Тейлор-Джонсон) [Драма, мелодрама, 2015] BDRip 720p, Dub [iTunes | UNRATED]

Dracon

540 | 34

5.81 ГБ

В этой теме нет новых непрочитанных сообщений. Пятьдесят оттенков серого / Fifty Shades of Grey (Сэм Тейлор-Джонсон) [Драма, мелодрама, 2015] HDRip, Dub [iTunes | UNRATED]

Dracon

1407 | 65

2.01 ГБ

В этой теме нет новых непрочитанных сообщений. Пятьдесят оттенков серого / Fifty Shades of Grey (Сэм Тейлор-Джонсон) [Драма, мелодрама, 2015] WEB-DLRip, Dub [iTunes]

Dracon

5919 | 200

1.46 ГБ

В этой теме нет новых непрочитанных сообщений. Пятьдесят оттенков серого / Fifty Shades of Grey (Сэм Тейлор-Джонсон) [Драма, мелодрама, 2015] WEB-DL 720p, Dub [iTunes]

Dracon

1168 | 34

3.83 ГБ

В этой теме нет новых непрочитанных сообщений. Пятьдесят оттенков серого / Fifty Shades of Grey (Сэм Тейлор-Джонсон) [Драма, мелодрама, 2015] WEB-DLRip 1080p, Dub [iTunes]

Dracon

420 | 14

4.46 ГБ


Начать новую тему Ответить на тему  [ 1 сообщение ] 




Для Мосгорсуда, Роскомнадзора и рекламодателей:: mosgorsud-torrent[собачка]yandex.ru