Торрент файл
скачать торрент магнет ссылка Добавлен: 27 май 2015, 20:15
Размер: 2.31 ГБ
Сидеров: 28
Личеров: 4
Статус: (salma3)
Автор

СообщениеДобавлено: 27 май 2015, 20:15 

Не в сети
Супермодератор
Аватара пользователя
Дата регистрации:
15 фев 2012, 16:44
Возраст: 27
Спасибо: 5139 / 2089
Сообщения: 17411
Год выпуска: 1998
Страна: США
Жанр: драма, комедия
Продолжительность: 01:31:06
Перевод: профессиональный многоголосый

Режиссёр: Тамара Дженкинс

В ролях: Наташа Лионн, Алан Аркин, Брина Уайсс, Мариса Томей, Шарлотта Стюарт, Эли Мариентал, Дэвид Крамхолц, Кевин Корригэн, Брендан Барнс, Харрис Ласкэвей

Описание: По дороге во взрослую жизнь Вивьен мучает несовместимость двух факторов в её жизни. С одной стороны, страшная подавленность, связанная с постоянными переездами её семьи, и полное отчаяние, когда шанс поселиться в школьном районе Беверли Хиллз улетучился, как дым, с другой — её сексуальный расцвет. Ко всему этому добавляется появление жиизнерадостной кузины, явившейся к Вивьен, чтобы помочь ей выпустить свою сексуальную энергию. Результат доказал, для того чтобы хорошо повеселиться, не обязательно быть богатым...



Качество: BDRip AVC Сравнение с исходником
Формат: MKV
Видео: MPEG-4 AVC, 3180 Кбит/с, 1024x554, 23,976 кадра/с
Аудио 1: русский, AC3, 192 kbps, 2 ch, 48 kHz [профессиональный многоголосый, Лазер Видео]
Аудио 2: английский, AC3, 192 kbps, 2 ch, 48 kHz [оригинал]
Субтитры: английские

Общее
Уникальный идентификатор : 180361562985103065335558703262500135228 (0x87B05F9D7EFF0949B8FE808CB9A8213C)
Полное имя : D:VideoТрущобы Беверли Хиллз.1998.BDRip.AVC.mkv
Формат : Matroska
Версия формата : Version 4 / Version 2
Размер файла : 2,31 Гбайт
Продолжительность : 1 ч. 31 м.
Общий поток : 3636 Кбит/сек
Название фильма : BDRip -- STarankov
Дата кодирования : UTC 2015-05-26 04:28:37
Программа кодирования : mkvmerge v7.9.0 ('Birds') 64bit
Библиотека кодирования : libebml v1.3.1 + libmatroska v1.4.2
_STATISTICS_WRITING_APP : mkvmerge v7.9.0 ('Birds') 64bit
_STATISTICS_WRITING_DATE_UTC : 2015-05-26 04:28:37
_STATISTICS_TAGS : BPS DURATION NUMBER_OF_FRAMES NUMBER_OF_BYTES
DURATION : 01:26:33.693000000
NUMBER_OF_FRAMES : 1665
NUMBER_OF_BYTES : 56291

Видео
Идентификатор : 1
Формат : AVC
Формат/Информация : Advanced Video Codec
Профиль формата : High@L4.1
Параметр CABAC формата : Да
Параметр ReFrames формата : 9 кадров
Идентификатор кодека : V_MPEG4/ISO/AVC
Продолжительность : 1 ч. 31 м.
Битрейт : 3180 Кбит/сек
Ширина : 1024 пикселя
Высота : 554 пикселя
Соотношение сторон : 1,85:1
Режим частоты кадров : Постоянный
Частота кадров : 23,976 кадра/сек
Цветовое пространство : YUV
Субдискретизация насыщенности : 4:2:0
Битовая глубина : 8 бит
Тип развёртки : Прогрессивная
Бит/(Пиксели*Кадры) : 0.234
Размер потока : 2,02 Гбайт (87%)
Библиотека кодирования : x264 core 146 r2538 121396c
Настройки программы : cabac=1 / ref=9 / deblock=1:-1:-1 / analyse=0x3:0x113 / me=umh / subme=10 / psy=1 / psy_rd=1.00:0.15 / mixed_ref=1 / me_range=32 / chroma_me=1 / trellis=2 / 8x8dct=1 / cqm=0 / deadzone=21,11 / fast_pskip=1 / chroma_qp_offset=-3 / threads=6 / lookahead_threads=1 / sliced_threads=0 / nr=0 / decimate=1 / interlaced=0 / bluray_compat=0 / constrained_intra=0 / bframes=13 / b_pyramid=2 / b_adapt=2 / b_bias=0 / direct=1 / weightb=1 / open_gop=0 / weightp=2 / keyint=230 / keyint_min=23 / scenecut=40 / intra_refresh=0 / rc_lookahead=40 / rc=crf / mbtree=0 / crf=20.0 / qcomp=0.60 / qpmin=0 / qpmax=69 / qpstep=4 / vbv_maxrate=40000 / vbv_bufsize=50000 / crf_max=0.0 / nal_hrd=none / filler=0 / ip_ratio=1.40 / pb_ratio=1.30 / aq=1:1.00
Язык : English
Default : Да
Forced : Нет
DURATION : 01:31:06.086000000
NUMBER_OF_FRAMES : 131055
NUMBER_OF_BYTES : 2220518778
_STATISTICS_WRITING_APP : mkvmerge v7.9.0 ('Birds') 64bit
_STATISTICS_WRITING_DATE_UTC : 2015-05-26 04:28:37
_STATISTICS_TAGS : BPS DURATION NUMBER_OF_FRAMES NUMBER_OF_BYTES

Аудио #1
Идентификатор : 2
Формат : AC-3
Формат/Информация : Audio Coding 3
Расширение режима : CM (complete main)
Параметр Endianness формата : Big
Идентификатор кодека : A_AC3
Продолжительность : 1 ч. 31 м.
Вид битрейта : Постоянный
Битрейт : 192 Кбит/сек
Каналы : 2 канала
Расположение каналов : Front: L R
Частота : 48,0 КГц
Битовая глубина : 16 бит
Метод сжатия : С потерями
Размер потока : 125 Мбайт (5%)
Заголовок : MVO (Лазер Видео)
Язык : Russian
Default : Да
Forced : Нет

Аудио #2
Идентификатор : 3
Формат : AC-3
Формат/Информация : Audio Coding 3
Расширение режима : CM (complete main)
Параметр Endianness формата : Big
Идентификатор кодека : A_AC3
Продолжительность : 1 ч. 31 м.
Вид битрейта : Постоянный
Битрейт : 192 Кбит/сек
Каналы : 2 канала
Расположение каналов : Front: L R
Частота : 48,0 КГц
Битовая глубина : 16 бит
Метод сжатия : С потерями
Размер потока : 125 Мбайт (5%)
Заголовок : Original
Язык : English
Default : Нет
Forced : Нет

Текст
Идентификатор : 4
Формат : UTF-8
Идентификатор кодека : S_TEXT/UTF8
Идентификатор кодека/Информация : UTF-8 Plain Text
Заголовок : английские
Язык : English
Default : Нет
Forced : Нет




_________________



реклама партнёра


Вернуться к началу
 Профиль Отправить личное сообщение  
 
   Похожие торренты   Автор   Торрент   Размер 
В этой теме нет новых непрочитанных сообщений. Трущобы Беверли Хиллз / Slums of Beverly Hills [драма, комедия, 1998] BDRip 720p, Mvo+Sub

salma3

46 | 2

3.81 ГБ

В этой теме нет новых непрочитанных сообщений. Трущобы Беверли Хиллз / Slums of Beverly Hills [драма, комедия, 1998] BDRip 1080p, Mvo+Sub

salma3

21 | 5

8.77 ГБ

В этой теме нет новых непрочитанных сообщений. Взятие Беверли Хиллз / Захват Беверли Хиллз / The Taking of Beverly Hills [Боевик, 1991] HDTV 1080i, Dvo [НТВ +]

salma3

6 | 2

3.42 ГБ

В этой теме нет новых непрочитанных сообщений. Без гроша в Беверли Хиллз / Down and Out in Beverly Hills [Комедия, 1986] WEB-DLRip 720p, Mvo+Sub

salma3

0 | 2

3.3 ГБ

В этой теме нет новых непрочитанных сообщений. Отряд Беверли Хиллз / Troop Beverly Hills [Комедия, Приключения, 1989] WEB-DLRip-AVC, Mvo+Sub

salma3

25 | 5

1.46 ГБ

В этой теме нет новых непрочитанных сообщений. Отряд Беверли Хиллз / Troop Beverly Hills [комедия, приключения, 1989] HDRip, Mvo

salma3

25 | 0

1.47 ГБ

В этой теме нет новых непрочитанных сообщений. Ниндзя из Беверли Хиллз / Beverly Hills Ninja [Комедия, приключения, боевик, 1997] HDRip, Mvo

salma3

92 | 9

1.46 ГБ


Начать новую тему Ответить на тему  [ 1 сообщение ] 




Для Мосгорсуда, Роскомнадзора и рекламодателей:: mosgorsud-torrent[собачка]yandex.ru