Торрент файл
скачать торрент магнет ссылка Добавлен: 26 май 2015, 21:21
Размер: 3.45 ГБ
Сидеров: 123
Личеров: 8
Статус: (salma3)
Автор

СообщениеДобавлено: 26 май 2015, 21:21 

Не в сети
Супермодератор
Аватара пользователя
Дата регистрации:
15 фев 2012, 16:44
Возраст: 27
Спасибо: 5131 / 2089
Сообщения: 17372
Год выхода: 1999
Жанр: Ужасы, триллер, детектив
Режиссер: Руперт Уэйнрайт
В ролях: Патриция Аркетт, Гэбриел Бирн, Джонатан Прайс, Ниа Лонг, Томас Копаче, Раде Шербеджия, Энрико Колантони, Дик Латесса, Порша де Росси, Патрик Малдун

О фильме:
Фрэнки Пейдж живет спокойно, свободно и беззаботно. И меньше всего ее беспокоят вопросы о Боге. Все это в одночасье меняется, когда ее поражают «стигматы» — кровоточащие раны распятого Христа. Вскоре на нее обращает внимание отец Кернан, уполномоченный следователь из Ватикана. Одновременно и другой священнослужитель, коррумпированный кардинал Хаусмен, понимает, что Фрэнки избрана для передачи сокрушительного пророчества, которое может навредить официальной церкви. Он убежден, что необходимо любым способом заставить ее замолчать. Поэтому Кернан, рискуя жизнью, пытается спасти Фрэнки и получить послание, не только разбивающее устои римско-католической церкви, но и навсегда изменяющее судьбу человечества.



Страна: США
Студия: FGM Entertainment, Metro-Goldwyn-Mayer (MGM)
Продолжительность: 01:42:13
Перевод: Дублированный, профессиональный многоголосый, авторский одноголосый (А. Гаврилов)

Файл
Кодек: MPEG-4 AVC
Качество: BDRip-AVC
Видео: 3100 Кбит/с, 1024x432
Звук: Русский (AC3, 2 ch, 192 Кбит/с), (AC3, 6 ch, 448 Кбит/с), английский (AC3, 6 ch, 448 Кбит/с)
Субтитры: Русские (форс., полные), английские
Аудио#1: Russian: AC3, 48 kHz, AC3, 3/2 (L,C,R,l,r) + LFE ch, ~448.00 kbps avg - Дублированный
Аудио#2: Russian: AC3, 48 kHz, AC3, 2 (L,R) ch, ~192.00 kbps avg - Дублированный
Аудио#3: Russian: AC3, 48 kHz, AC3, 2 (L,R) ch, ~192.00 kbps avg - Профессиональный многоголосый
Аудио#4: Russian: AC3, 48 kHz, AC3, 3/2 (L,C,R,l,r) + LFE ch, ~448.00 kbps avg - Авторский одноголосый (А. Гаврилов)
Аудио#5: English: AC3, 48 kHz, AC3, 3/2 (L,C,R,l,r) + LFE ch, ~448.00 kbps avg - Оригинал

Рип от StarbirS

Формат : Matroska
Версия формата : Version 2
Размер файла : 3,45 Гбайт
Продолжительность : 1 ч. 42 м.
Общий поток : 4829 Кбит/сек
Название фильма : Stigmata.1999.x264.BDRip.(AVC)
Дата кодирования : UTC 2015-05-26 06:05:21
Программа кодирования : mkvmerge v7.7.0 ('Six Voices') 64bit built on Feb 28 2015 23:39:33
Библиотека кодирования : libebml v1.3.1 + libmatroska v1.4.2

Видео
Идентификатор : 1
Формат : AVC
Формат/Информация : Advanced Video Codec
Профиль формата : High@L4.1
Параметр CABAC формата : Да
Параметр ReFrames формата : 14 кадров
Идентификатор кодека : V_MPEG4/ISO/AVC
Продолжительность : 1 ч. 42 м.
Битрейт : 3100 Кбит/сек
Ширина : 1024 пикселя
Высота : 432 пикселя
Соотношение сторон : 2,40:1
Режим частоты кадров : Постоянный
Частота кадров : 23,976 кадра/сек
Цветовое пространство : YUV
Субдискретизация насыщенности : 4:2:0
Битовая глубина : 8 бит
Тип развёртки : Прогрессивная
Бит/(Пиксели*Кадры) : 0.292
Размер потока : 2,15 Гбайт (62%)
Заголовок : Stigmata.1999.x264.BDRip.(AVC).by.StarbirS
Библиотека кодирования : x264 core 146 r2538 121396c
Настройки программы : cabac=1 / ref=14 / deblock=1:-3:-3 / analyse=0x3:0x113 / me=umh / subme=10 / psy=1 / psy_rd=1.10:0.20 / mixed_ref=1 / me_range=32 / chroma_me=1 / trellis=2 / 8x8dct=1 / cqm=0 / deadzone=21,11 / fast_pskip=0 / chroma_qp_offset=-3 / threads=12 / lookahead_threads=2 / sliced_threads=0 / nr=0 / decimate=0 / interlaced=0 / bluray_compat=0 / constrained_intra=0 / bframes=8 / b_pyramid=2 / b_adapt=2 / b_bias=0 / direct=3 / weightb=1 / open_gop=1 / weightp=2 / keyint=240 / keyint_min=23 / scenecut=40 / intra_refresh=0 / rc=2pass / mbtree=0 / bitrate=3100 / ratetol=1.0 / qcomp=0.65 / qpmin=0 / qpmax=69 / qpstep=4 / cplxblur=20.0 / qblur=0.5 / ip_ratio=1.40 / pb_ratio=1.30 / aq=3:0.90
Язык : English
Default : Да
Forced : Нет

Аудио #1
Идентификатор : 2
Формат : AC-3
Формат/Информация : Audio Coding 3
Расширение режима : CM (complete main)
Параметр Endianness формата : Big
Идентификатор кодека : A_AC3
Продолжительность : 1 ч. 42 м.
Вид битрейта : Постоянный
Битрейт : 448 Кбит/сек
Каналы : 6 каналов
Расположение каналов : Front: L C R, Side: L R, LFE
Частота : 48,0 КГц
Битовая глубина : 16 бит
Метод сжатия : С потерями
Размер потока : 328 Мбайт (9%)
Заголовок : Дублированный 5.1
Язык : Russian
Default : Да
Forced : Нет

Аудио #2
Идентификатор : 3
Формат : AC-3
Формат/Информация : Audio Coding 3
Профиль формата : Dolby Digital
Расширение режима : CM (complete main)
Параметр Endianness формата : Big
Идентификатор кодека : A_AC3
Продолжительность : 1 ч. 42 м.
Вид битрейта : Постоянный
Битрейт : 192 Кбит/сек
Каналы : 2 канала
Расположение каналов : Front: L R
Частота : 48,0 КГц
Битовая глубина : 16 бит
Метод сжатия : С потерями
Размер потока : 140 Мбайт (4%)
Заголовок : Дублированный 2.0
Язык : Russian
Default : Нет
Forced : Нет

Аудио #3
Идентификатор : 4
Формат : AC-3
Формат/Информация : Audio Coding 3
Расширение режима : CM (complete main)
Параметр Endianness формата : Big
Идентификатор кодека : A_AC3
Продолжительность : 1 ч. 42 м.
Вид битрейта : Постоянный
Битрейт : 192 Кбит/сек
Каналы : 2 канала
Расположение каналов : Front: L R
Частота : 48,0 КГц
Битовая глубина : 16 бит
Метод сжатия : С потерями
Размер потока : 140 Мбайт (4%)
Заголовок : Профессиональный многоголосый
Язык : Russian
Default : Нет
Forced : Нет

Аудио #4
Идентификатор : 5
Формат : AC-3
Формат/Информация : Audio Coding 3
Расширение режима : CM (complete main)
Параметр Endianness формата : Big
Идентификатор кодека : A_AC3
Продолжительность : 1 ч. 42 м.
Вид битрейта : Постоянный
Битрейт : 448 Кбит/сек
Каналы : 6 каналов
Расположение каналов : Front: L C R, Side: L R, LFE
Частота : 48,0 КГц
Битовая глубина : 16 бит
Метод сжатия : С потерями
Размер потока : 328 Мбайт (9%)
Заголовок : Авторский одноголосый (А. Гаврилов)
Язык : Russian
Default : Нет
Forced : Нет

Аудио #5
Идентификатор : 6
Формат : AC-3
Формат/Информация : Audio Coding 3
Расширение режима : CM (complete main)
Параметр Endianness формата : Big
Идентификатор кодека : A_AC3
Продолжительность : 1 ч. 42 м.
Вид битрейта : Постоянный
Битрейт : 448 Кбит/сек
Каналы : 6 каналов
Расположение каналов : Front: L C R, Side: L R, LFE
Частота : 48,0 КГц
Битовая глубина : 16 бит
Метод сжатия : С потерями
Размер потока : 328 Мбайт (9%)
Язык : English
Default : Нет
Forced : Нет

Текст #1
Идентификатор : 7
Формат : UTF-8
Идентификатор кодека : S_TEXT/UTF8
Идентификатор кодека/Информация : UTF-8 Plain Text
Заголовок : forced
Язык : Russian
Default : Нет
Forced : Нет

Текст #2
Идентификатор : 8
Формат : UTF-8
Идентификатор кодека : S_TEXT/UTF8
Идентификатор кодека/Информация : UTF-8 Plain Text
Заголовок : full
Язык : Russian
Default : Да
Forced : Нет

Текст #3
Идентификатор : 9
Формат : UTF-8
Идентификатор кодека : S_TEXT/UTF8
Идентификатор кодека/Информация : UTF-8 Plain Text
Язык : English
Default : Нет
Forced : Нет

Меню
00:00:00.000 : en:00:00:00.000
00:08:23.920 : en:00:08:23.920
00:16:19.937 : en:00:16:19.937
00:24:40.896 : en:00:24:40.896
00:34:26.564 : en:00:34:26.564
00:43:37.657 : en:00:43:37.657
00:50:44.250 : en:00:50:44.250
01:00:41.596 : en:01:00:41.596
01:10:21.008 : en:01:10:21.008
01:19:05.699 : en:01:19:05.699
01:27:58.857 : en:01:27:58.857
01:36:17.855 : en:01:36:17.855
x264 [info]: frame I:1315 Avg QP:16.84 size: 81050
x264 [info]: frame P:34675 Avg QP:19.42 size: 29173
x264 [info]: frame B:111035 Avg QP:21.99 size: 11320



_________________



реклама партнёра


Вернуться к началу
 Профиль Отправить личное сообщение  
 
   Похожие торренты   Автор   Торрент   Размер 
В этой теме нет новых непрочитанных сообщений. Стигматы / Stigmata [Ужасы, триллер, детектив, 1999] BDRip 1080p, Dub+Mvo+Avo+Sub

salma3

49 | 3

7.94 ГБ

В этой теме нет новых непрочитанных сообщений. Стигматы / Stigmata [ужасы, триллер, детектив, 1999] WEB-DLRip, Dub |iTunes Russia|

salma3

70 | 4

1.46 ГБ

В этой теме нет новых непрочитанных сообщений. Крик. Квадрология / Scream. Quadrilogy (Уэс Крэйвен) [1996, 1997, 1999, 2011, ужасы, триллер, детектив, BDRip]

Dracon

19 | 1

5.47 ГБ

В этой теме нет новых непрочитанных сообщений. Воскрешение / Resurrection [ужасы, триллер, драма, криминал, детектив. 1999] DVDRip-AVC, Dvo+Avo+Sub

salma3

139 | 14

2.18 ГБ

В этой теме нет новых непрочитанных сообщений. Воскрешение / Resurrection [ужасы, триллер, драма, криминал, детектив, 1999] DVD9, Dvo+Avo+Sub

salma3

16 | 3

5.34 ГБ

В этой теме нет новых непрочитанных сообщений. Экзистенция / eXistenZ [ужасы, фантастика, триллер, 1999] BDRip, Dvo+Avo+Sub

salma3

63 | 2

1.45 ГБ

В этой теме нет новых непрочитанных сообщений. Людоед / Ravenous [ужасы, триллер, 1999] BDRip 720p, Mvo+Avo+Sub

salma3

80 | 4

6.56 ГБ


Начать новую тему Ответить на тему  [ 1 сообщение ] 




Для Мосгорсуда, Роскомнадзора и рекламодателей:: mosgorsud-torrent[собачка]yandex.ru