Торрент файл
скачать торрент магнет ссылка Добавлен: 26 май 2015, 11:03
Размер: 1.46 ГБ
Сидеров: 1
Личеров: 0
Статус: (salma3)
Автор

СообщениеДобавлено: 26 май 2015, 11:03 

Не в сети
Зам. Админа
Аватара пользователя
Дата регистрации:
02 дек 2010, 12:39
Спасибо: 12461 / 214
Сообщения: 27968
Год выхода: 2013
Жанр: Мелодрама
Режиссер: Дуан Адлер
В ролях: Дерек Хаф, БоА, Уилл Юн Ли, Уэсли Джонатан, Изабелла Мико, Майкл Мэндо, Рик Гонсалес, Дэн Лория, Эллисон Холкер, Джефферсон Браун

О фильме:
История о двух танцорах, которые выросли в разных условиях. Но оба они окажутся в Нью-Йорке и будут работать вместе в клубе. Между ними соперничество, но, когда двое влюбляются, история превращается в историю «Ромео и Джульетты».

Файл
Качество: HDRip
Видео: XviD, 720x384, 23.976 fps, 1701 Kbit/s
Аудио: АС3, 48000 Hz, 2 каналов, 192 kbit/s
Продолжительность: 01:49:57
Перевод: Профессиональный (многоголосный) [НТВ+]

General
Complete name                            : D:Sdelaj.shag.2013.P.HDRip.avi
Format                                   : AVI
Format/Info                              : Audio Video Interleave
File size                                : 1.46 GiB
Duration                                 : 1h 49mn
Overall bit rate                         : 1 902 Kbps
Writing application                      : VirtualDubMod 1.5.10.2 (build 2540/release)
Writing library                          : VirtualDubMod build 2540/release

Video
ID                                       : 0
Format                                   : MPEG-4 Visual
Format profile                           : Advanced Simple@L5
Format settings, BVOP                    : 2
Format settings, QPel                    : No
Format settings, GMC                     : No warppoints
Format settings, Matrix                  : Custom
Codec ID                                 : XVID
Codec ID/Hint                            : XviD
Duration                                 : 1h 49mn
Bit rate                                 : 1 701 Kbps
Width                                    : 720 pixels
Height                                   : 384 pixels
Display aspect ratio                     : 1.85:1
Frame rate                               : 23.976 fps
Color space                              : YUV
Chroma subsampling                       : 4:2:0
Bit depth                                : 8 bits
Scan type                                : Progressive
Compression mode                         : Lossy
Bits/(Pixel*Frame)                       : 0.257
Stream size                              : 1.31 GiB (89%)
Writing library                          : XviD 73

Audio
ID                                       : 1
Format                                   : AC-3
Format/Info                              : Audio Coding 3
Mode extension                           : CM (complete main)
Format settings, Endianness              : Big
Codec ID                                 : 2000
Duration                                 : 1h 49mn
Bit rate mode                            : Constant
Bit rate                                 : 192 Kbps
Channel(s)                               : 2 channels
Channel positions                        : Front: L R
Sampling rate                            : 48.0 KHz
Bit depth                                : 16 bits
Compression mode                         : Lossy
Stream size                              : 151 MiB (10%)
Alignment                                : Split accross interleaves
Interleave, duration                     : 42 ms (1.00 video frame)
Interleave, preload duration             : 500 ms









реклама партнёра


Вернуться к началу
 Профиль  
 
   Похожие торренты   Автор   Торрент   Размер 
В этой теме нет новых непрочитанных сообщений. Сделай шаг: Лови момент / Make Your Move (Дуан Адлер) [мелодрама, 2013] HDRip, dub [Чистый звук]

Dracon

77 | 5

2.05 ГБ

В этой теме нет новых непрочитанных сообщений. Сделай шаг: Лови момент / Make Your Move [мелодрама, 2013] BDRip 720p, dvo

Dracon

107 | 10

5.8 ГБ

В этой теме нет новых непрочитанных сообщений. Одно движение Божье / Ход Бога / God's One Move / The Divine Move [боевик, драма, криминал, 2014] HDRip, dvo

Dracon

468 | 22

745.82 МБ

В этой теме нет новых непрочитанных сообщений. Этот неловкий момент / That Awkward Moment [Мелодрама,Комедия, 2014] HDRip, Dub [лицензия]

Dracon

1482 | 41

1.45 ГБ

В этой теме нет новых непрочитанных сообщений. Ход конём / The Knight's Move [Комедия, приключения, 2013] WEBRip, Mvo

Dracon

450 | 17

1.37 ГБ

В этой теме нет новых непрочитанных сообщений. Смертельный шаг / Fatal Move / Duo shuai (Дэннис Ло / Dennis Law) [2008г., Гонконг, боевик, криминал, HDRip] AVO

Alfredovich

5 | 2

749.21 МБ

В этой теме нет новых непрочитанных сообщений. Этот неловкий момент / That Awkward Moment [мелодрама, комедия, 2014] TS, dub

Dracon

133 | 3

1.36 ГБ


Начать новую тему Ответить на тему  [ 1 сообщение ] 




Для Мосгорсуда, Роскомнадзора и рекламодателей:: mosgorsud-torrent[собачка]yandex.ru