Торрент файл
скачать торрент магнет ссылка Добавлен: 24 май 2015, 15:02
Размер: 2.64 ГБ
Сидеров: 66
Личеров: 11
Автор

СообщениеДобавлено: 24 май 2015, 15:02 

Не в сети
Супермодератор
Аватара пользователя
Дата регистрации:
15 фев 2012, 16:44
Возраст: 27
Спасибо: 5121 / 2089
Сообщения: 17282
Год выхода: 1989
Жанр: триллер, детектив
Режиссер: Филлип Нойс

В ролях: Николь Кидман, Сэм Нилл, Билли Зейн, Род Муллинар, Джошуф Тайлден, Георгий Шевцов

О фильме:Супружеская пара, приходящая в себя после трагической потери сына, отправилась на яхте в море. Они подбирают незнакомца в шлюпке, покинувшего по неизвестной причине яхту. Любознательный муж отправляется на лодке осмотреть брошенное судно и находит там такое, что волосы встают дыбом... Экранизация по произведению Чарльза Уильямса.



Страна: Австралия
Студия: Kennedy Miller Productions
Продолжительность: 01:52:21
Перевод: Дублированный, профессиональный многоголосый, авторский

Файл
Кодек: h.264
Качество: BDRip-AVC
Видео: 2960 Кбит/с, 1024x426, 23.976 кадр/с

Звук:
• №1: Русский (AC3, 2 ch, 192 Кбит/с) Дублированный [Варус Видео]
• №2: Русский (AC3, 2 ch, 192 Кбит/с) Профессиональный многоголосый [Карусель]
• №3: Русский (AC3, 2 ch, 192 Кбит/с) Профессиональный многоголосый [НТВ]
• №4: Русский (AC3, 2 ch, 192 Кбит/с) Авторский [Андрей Гаврилов]
• №5: Английский (AC3, 2 ch, 192 Кбит/с)

Субтитры: Русские, английские

Полное имя : Dead.Calm.1989.x264.BDRip-AVC.0ptimus.mkv
Формат : Matroska
Версия формата : Version 2
Размер файла : 2,64 Гбайт
Продолжительность : 1 ч. 36 м.
Общий поток : 3917 Кбит/сек
Название фильма : Мертвый штиль | Dead Calm [1989] -= BDRip (AVC) by 0ptimus =-
Дата кодирования : UTC 2015-05-23 10:24:48
Программа кодирования : mkvmerge v6.6.0 ('The Edge Of The In Between') built on Dec 1 2013 17:55:00
Библиотека кодирования : libebml v1.3.0 + libmatroska v1.4.1

Видео
Идентификатор : 1
Формат : AVC
Формат/Информация : Advanced Video Codec
Профиль формата : High@L4.1
Параметр CABAC формата : Да
Параметр ReFrames формата : 10 кадров
Идентификатор кодека : V_MPEG4/ISO/AVC
Продолжительность : 1 ч. 36 м.
Битрейт : 2960 Кбит/сек
Ширина : 1024 пикселя
Высота : 426 пикселей
Соотношение сторон : 2,40:1
Режим частоты кадров : Постоянный
Частота кадров : 23,976 кадра/сек
Цветовое пространство : YUV
Субдискретизация насыщенности : 4:2:0
Битовая глубина : 8 бит
Тип развёртки : Прогрессивная
Бит/(Пиксели*Кадры) : 0.283
Размер потока : 1,94 Гбайт (74%)
Заголовок : Rip by 0ptimus
Библиотека кодирования : x264 core 116 r2044 392e762
Настройки программы : cabac=1 / ref=10 / deblock=1:-2:-1 / analyse=0x3:0x113 / me=umh / subme=10 / psy=1 / psy_rd=1.00:0.20 / mixed_ref=1 / me_range=32 / chroma_me=1 / trellis=2 / 8x8dct=1 / cqm=0 / deadzone=21,11 / fast_pskip=0 / chroma_qp_offset=-3 / threads=3 / sliced_threads=0 / nr=0 / decimate=1 / interlaced=0 / bluray_compat=0 / constrained_intra=0 / bframes=6 / b_pyramid=2 / b_adapt=2 / b_bias=0 / direct=3 / weightb=1 / open_gop=0 / weightp=2 / keyint=250 / keyint_min=23 / scenecut=40 / intra_refresh=0 / rc=2pass / mbtree=0 / bitrate=2960 / ratetol=1.0 / qcomp=0.60 / qpmin=0 / qpmax=69 / qpstep=4 / cplxblur=20.0 / qblur=0.5 / ip_ratio=1.40 / pb_ratio=1.30 / aq=1:1.00
Язык : English
Default : Да
Forced : Да

Аудио #1
Идентификатор : 2
Формат : AC-3
Формат/Информация : Audio Coding 3
Расширение режима : CM (complete main)
Параметр Endianness формата : Big
Идентификатор кодека : A_AC3
Продолжительность : 1 ч. 36 м.
Вид битрейта : Постоянный
Битрейт : 192 Кбит/сек
Каналы : 2 канала
Расположение каналов : Front: L R
Частота : 48,0 КГц
Битовая глубина : 16 бит
Метод сжатия : С потерями
Размер потока : 132 Мбайт (5%)
Заголовок : Дублированный [Варус Видео] AC3 2.0 @ 192 kbps
Язык : Russian
Default : Да
Forced : Да

Аудио #2
Идентификатор : 3
Формат : AC-3
Формат/Информация : Audio Coding 3
Расширение режима : CM (complete main)
Параметр Endianness формата : Big
Идентификатор кодека : A_AC3
Продолжительность : 1 ч. 36 м.
Вид битрейта : Постоянный
Битрейт : 192 Кбит/сек
Каналы : 2 канала
Расположение каналов : Front: L R
Частота : 48,0 КГц
Битовая глубина : 16 бит
Метод сжатия : С потерями
Размер потока : 132 Мбайт (5%)
Заголовок : Многоголосый [Карусель] AC3 2.0 @ 192 kbps
Язык : Russian
Default : Нет
Forced : Нет

Аудио #3
Идентификатор : 4
Формат : AC-3
Формат/Информация : Audio Coding 3
Расширение режима : CM (complete main)
Параметр Endianness формата : Big
Идентификатор кодека : A_AC3
Продолжительность : 1 ч. 36 м.
Вид битрейта : Постоянный
Битрейт : 192 Кбит/сек
Каналы : 2 канала
Расположение каналов : Front: L R
Частота : 48,0 КГц
Битовая глубина : 16 бит
Метод сжатия : С потерями
Размер потока : 132 Мбайт (5%)
Заголовок : Многоголосый [НТВ] AC3 2.0 @ 192 kbps
Язык : Russian
Default : Нет
Forced : Нет

Аудио #4
Идентификатор : 5
Формат : AC-3
Формат/Информация : Audio Coding 3
Профиль формата : Dolby Digital
Расширение режима : CM (complete main)
Параметр Endianness формата : Big
Идентификатор кодека : A_AC3
Продолжительность : 1 ч. 36 м.
Вид битрейта : Постоянный
Битрейт : 192 Кбит/сек
Каналы : 2 канала
Расположение каналов : Front: L R
Частота : 48,0 КГц
Битовая глубина : 16 бит
Метод сжатия : С потерями
Размер потока : 132 Мбайт (5%)
Заголовок : Авторский [Андрей Гаврилов] AC3 2.0 @ 192 kbps
Язык : Russian
Default : Нет
Forced : Нет

Аудио #5
Идентификатор : 6
Формат : AC-3
Формат/Информация : Audio Coding 3
Профиль формата : Dolby Digital
Расширение режима : CM (complete main)
Параметр Endianness формата : Big
Идентификатор кодека : A_AC3
Продолжительность : 1 ч. 36 м.
Вид битрейта : Постоянный
Битрейт : 192 Кбит/сек
Каналы : 2 канала
Расположение каналов : Front: L R
Частота : 48,0 КГц
Битовая глубина : 16 бит
Метод сжатия : С потерями
Размер потока : 132 Мбайт (5%)
Заголовок : AC3 2.0 @ 192 kbps
Язык : English
Default : Нет
Forced : Нет

Текст #1
Идентификатор : 7
Формат : UTF-8
Идентификатор кодека : S_TEXT/UTF8
Идентификатор кодека/Информация : UTF-8 Plain Text
Язык : Russian
Default : Нет
Forced : Нет

Текст #2
Идентификатор : 8
Формат : UTF-8
Идентификатор кодека : S_TEXT/UTF8
Идентификатор кодека/Информация : UTF-8 Plain Text
Язык : English
Default : Нет
Forced : Нет

Меню
00:00:00.000 : en:Opening Titles
00:01:59.535 : en:Homecoming Havoc
00:06:48.408 : en:Waking From the Nightmare
00:10:11.986 : en:Ships Ahoy!
00:13:00.488 : en:Row, Row, Row Your....
00:20:06.539 : en:Flipping Photos
00:23:37.249 : en:Boarding the Orpheous
00:24:49.737 : en:The Sleeper Awakens
00:27:23.391 : en:Body Count
00:29:03.116 : en:The Getaway
00:31:20.253 : en:Getting Pumped
00:33:35.889 : en:Footloose and Fancyfree
00:37:40.467 : en:"No Going Back!"
00:41:01.083 : en:"Fear Is Now"
00:43:35.362 : en:"John, Are You There?"
00:47:55.331 : en:Motor Mayhem
00:52:45.161 : en:Lightning Crasehs
00:58:03.772 : en:Betrayed with a Kiss
01:03:40.984 : en:The Waters Rise
01:05:48.570 : en:Seductive Sedation
01:10:45.783 : en:Shotgun Shuffle
01:14:12.948 : en:Pumping Out the Bilge
01:14:30.549 : en:Braving the Bellows
01:17:17.550 : en:Head Above Water
01:17:53.711 : en:Bound Hand & Foot
01:18:16.774 : en:Vying for Air
01:18:59.652 : en:Breaking Out
01:19:28.639 : en:Surfacing
01:20:36.290 : en:Fire in the Sky
01:22:07.840 : en:Cutting Loose
01:22:15.597 : en:Toppling Inferno
01:22:46.170 : en:Pierced: Camping Out
01:25:11.356 : en:Driftwood; Reunited
01:28:13.497 : en:Returning for the Killer
01:30:01.854 : en:Hair We Go Again
01:32:39.929 : en:Flareup
01:33:20.595 : en:Closing Titles



Релиз от:


_________________



реклама партнёра


Вернуться к началу
 Профиль Отправить личное сообщение  
 
   Похожие торренты   Автор   Торрент   Размер 
В этой теме нет новых непрочитанных сообщений. Быстрый и Мёртвый / The Quick And The Dead [Боевик, триллер, вестерн, 1995] BDRip, Avo

salma3

15 | 0

1.43 ГБ

В этой теме нет новых непрочитанных сообщений. Быстрый и мертвый / The Quick and the Dead [вестерн, боевик, триллер, 1995] Blu-ray CEE 1080p, Dub+Sub

salma3

35 | 63

30.91 ГБ

В этой теме нет новых непрочитанных сообщений. Мертвый космос / Dead Space [ужасы, фантастика, 1990] DVDRip, 3avo

salma3

37 | 3

1.46 ГБ

В этой теме нет новых непрочитанных сообщений. Общество мертвых поэтов / Dead Poets Society [драма, 1989] BDRip-AVC, Dub+Sub [Лицензия]

salma3

144 | 3

1.46 ГБ

В этой теме нет новых непрочитанных сообщений. Мертвая зона / The Dead Zone [ужасы, триллер, драма, детектив, 1983] BDRip, Mvo [ТВ3]

salma3

43 | 8

1.46 ГБ

В этой теме нет новых непрочитанных сообщений. Голубая сталь / Blue Steel [Триллер, детектив, боевик, драма, 1989] BDRip-AVC, Mvo+Dvo+Avo+Sub

salma3

31 | 4

2.72 ГБ

В этой теме нет новых непрочитанных сообщений. Операция «Мертвый снег» 2 / Død Snø 2 [ужасы, триллер, 2014] BDRip 720p, dvo

Dracon

131 | 3

4.42 ГБ


Начать новую тему Ответить на тему  [ 1 сообщение ] 




Для Мосгорсуда, Роскомнадзора и рекламодателей:: mosgorsud-torrent[собачка]yandex.ru