Торрент файл
скачать торрент магнет ссылка Добавлен: 15 май 2015, 11:10
Размер: 2.05 ГБ
Сидеров: 1
Личеров: 0
Статус: (salma3)
Автор

СообщениеДобавлено: 15 май 2015, 11:10 

Не в сети
Зам. Админа
Аватара пользователя
Дата регистрации:
02 дек 2010, 12:39
Спасибо: 12625 / 214
Сообщения: 28010
Год выхода: 2014
Жанр: Триллер
Режиссер: Эрик Ван Лой
В ролях: Карл Урбан, Джеймс Марсден, Вентворт Миллер, Эрик Стоунстрит, Маттиас Шонартс, Изабель Лукас, Рэйчел Тейлор, Рона Митра, Валери Крус, Кали Роча

О фильме:
Пятеро женатых друзей решают совместно снять респектабельную квартиру, чтобы приводить туда любовниц и реализовывать свои сексуальные фантазии. Но однажды они находят в квартире обнаженное тело убитой женщины… Все пятеро подозревают в убийстве друг друга.

IMDB 6,3
Кинопоиск: 6.828

Качество: HDRip
Видео: XviD, 1939 Kbit/s, 720x304, 23.976 fps
Аудио: Russian: AC3, 448 kb/s (6 ch)
Аудио: English: AC3, 448 kb/s (6 ch)
Продолжительность: 01:42:59
Перевод: Дублированный
Скачать: Сэмпл

General
Complete name                            : D:The.Loft.2014.D.BDRip.avi
Format                                   : AVI
Format/Info                              : Audio Video Interleave
Format profile                           : OpenDML
File size                                : 2.05 GiB
Duration                                 : 1h 42mn
Overall bit rate                         : 2 853 Kbps
Writing application                      : VirtualDubMod 1.5.10.2 (build 2540/release)
Writing library                          : VirtualDubMod build 2540/release

Video
ID                                       : 0
Format                                   : MPEG-4 Visual
Format profile                           : Advanced Simple@L5
Format settings, BVOP                    : 2
Format settings, QPel                    : No
Format settings, GMC                     : No warppoints
Format settings, Matrix                  : Default (MPEG)
Codec ID                                 : XVID
Codec ID/Hint                            : XviD
Duration                                 : 1h 42mn
Bit rate                                 : 1 939 Kbps
Width                                    : 720 pixels
Height                                   : 304 pixels
Display aspect ratio                     : 2.35:1
Frame rate                               : 23.976 fps
Color space                              : YUV
Chroma subsampling                       : 4:2:0
Bit depth                                : 8 bits
Scan type                                : Progressive
Compression mode                         : Lossy
Bits/(Pixel*Frame)                       : 0.369
Stream size                              : 1.39 GiB (68%)
Writing library                          : XviD 1.2.1 (UTC 2008-12-04)

Audio #1
ID                                       : 1
Format                                   : AC-3
Format/Info                              : Audio Coding 3
Mode extension                           : CM (complete main)
Format settings, Endianness              : Big
Codec ID                                 : 2000
Duration                                 : 1h 42mn
Bit rate mode                            : Constant
Bit rate                                 : 448 Kbps
Channel(s)                               : 6 channels
Channel positions                        : Front: L C R, Side: L R, LFE
Sampling rate                            : 48.0 KHz
Bit depth                                : 16 bits
Compression mode                         : Lossy
Stream size                              : 330 MiB (16%)
Alignment                                : Split accross interleaves
Interleave, duration                     : 42 ms (1.00 video frame)
Interleave, preload duration             : 500 ms

Audio #2
ID                                       : 2
Format                                   : AC-3
Format/Info                              : Audio Coding 3
Mode extension                           : CM (complete main)
Format settings, Endianness              : Big
Codec ID                                 : 2000
Duration                                 : 1h 42mn
Bit rate mode                            : Constant
Bit rate                                 : 448 Kbps
Channel(s)                               : 6 channels
Channel positions                        : Front: L C R, Side: L R, LFE
Sampling rate                            : 48.0 KHz
Bit depth                                : 16 bits
Compression mode                         : Lossy
Stream size                              : 330 MiB (16%)
Alignment                                : Split accross interleaves
Interleave, duration                     : 42 ms (1.00 video frame)
Interleave, preload duration             : 500 ms









реклама партнёра


Вернуться к началу
 Профиль  
 
   Похожие торренты   Автор   Торрент   Размер 
В этой теме нет новых непрочитанных сообщений. Лофт / The Loft (Эрик Ван Лой) [Триллер, 2014] HDRip, Dub [Лицензия]

Dracon

0 | 0

1.37 ГБ

В этой теме нет новых непрочитанных сообщений. Лофт / The Loft (Эрик Ван Лой) [Триллер, 2014] WEB-DL 1080p, Dub [Лицензия]

Dracon

128 | 9

5.97 ГБ

В этой теме нет новых непрочитанных сообщений. Лофт / The Loft (Эрик Ван Лой) [Триллер, 2014] Web-DLRip, Dub [Лицензия]

Dracon

498 | 15

1.46 ГБ

В этой теме нет новых непрочитанных сообщений. Лофт / The Loft (Эрик Ван Лой) [Триллер, 2014] Blu-Ray Remux 1080p, Dub [Лицензия]

Dracon

137 | 25

26.01 ГБ

В этой теме нет новых непрочитанных сообщений. Лофт /  The Loft (Эрик Ван Лой) [Триллер, 2014] Web-DLRip 720p, Dub [Лицензия]

Dracon

13 | 2

3.36 ГБ

В этой теме нет новых непрочитанных сообщений. Лофт / The Loft (Эрик Ван Лой) [Триллер, 2014] WebRip, dub [Чистый звук]

Dracon

2 | 3

705.01 МБ

В этой теме нет новых непрочитанных сообщений. Лофт / The Loft [триллер, детектив, 2014] BDRip, Dub [Лицензия]

salma3

0 | 0

1.46 ГБ


Начать новую тему Ответить на тему  [ 1 сообщение ] 




Для Мосгорсуда, Роскомнадзора и рекламодателей:: mosgorsud-torrent[собачка]yandex.ru