Торрент файл
скачать торрент магнет ссылка Добавлен: 11 май 2015, 11:22
Размер: 2.47 ГБ
Сидеров: 389
Личеров: 19
Статус: (salma3)
Автор

СообщениеДобавлено: 11 май 2015, 11:22 

Не в сети
Зам. Админа
Аватара пользователя
Дата регистрации:
02 дек 2010, 12:39
Спасибо: 12461 / 214
Сообщения: 27968
Год выхода: 2014
Жанр: ужасы, триллер, приключения
Режиссер: Браден Крофт
В ролях:Эрика Кэрролл, Шон Робертс, Эмили Теннант, Тайлер Джонстон, Бриттни Ирвин, Гари Чок, Кристин Уиллз, Алекс Паунович, Тара Уилсон, Лэйн Эдвардс

О фильме: После смерти приемной матери, два брата с подружкой находят видеокассету и данные о том городе где они родились и решают отправиться на поиски своих родителей. По прибытию в город они начинают понимать, что с самим городом и оставшимися немногочисленными жителями происходит что-то странное и ведут все себя при этом - весьма подозрительно...


Выпущено: Канада / BMC Pictures, Compound B, Random Bench Productions
Продолжительность: 01:23:30
Озвучивание: Любительское (двухголосное) [den904 & DeadSno], перевод [Antonio]

Формат: MKV
Качество: WEB-DL 720p
Видео: 3567 kb/s, 1280x528
Аудио: Russian: AC3, 192 kb/s (2 ch) / English: AC3, 384 kb/s (6 ch)
Субтитры: English

Format : Matroska
Format version : Version 4 / Version 2
File size : 2.47 GiB
Duration : 1h 23mn
Overall bit rate : 4 227 Kbps
Encoded date : UTC 2015-05-10 18:32:05
Writing application : mkvmerge v6.1.0 ('Old Devil') built on Mar 4 2013 09:10:42
Writing library : libebml v1.3.0 + libmatroska v1.4.0

Video
ID : 1
Format : AVC
Format/Info : Advanced Video Codec
Format profile : Main@L3.1
Format settings, CABAC : No
Format settings, ReFrames : 2 frames
Codec ID : V_MPEG4/ISO/AVC
Duration : 1h 23mn
Bit rate : 3 567 Kbps
Width : 1 280 pixels
Height : 528 pixels
Display aspect ratio : 2.40:1
Frame rate : 23.976 fps
Color space : YUV
Chroma subsampling : 4:2:0
Bit depth : 8 bits
Scan type : Progressive
Bits/(Pixel*Frame) : 0.220
Stream size : 2.08 GiB (84%)
Language : English
Default : Yes
Forced : No
Color primaries : BT.709-5, BT.1361, IEC 61966-2-4, SMPTE RP177
Transfer characteristics : BT.709-5, BT.1361
Matrix coefficients : BT.709-5, BT.1361, IEC 61966-2-4 709, SMPTE RP177

Audio #1
ID : 2
Format : AC-3
Format/Info : Audio Coding 3
Mode extension : CM (complete main)
Format settings, Endianness : Big
Codec ID : A_AC3
Duration : 1h 23mn
Bit rate mode : Constant
Bit rate : 192 Kbps
Channel(s) : 2 channels
Channel positions : Front: L R
Sampling rate : 48.0 KHz
Bit depth : 16 bits
Compression mode : Lossy
Stream size : 115 MiB (5%)
Language : Russian
Default : Yes
Forced : No

Audio #2
ID : 3
Format : AC-3
Format/Info : Audio Coding 3
Mode extension : CM (complete main)
Format settings, Endianness : Big
Codec ID : A_AC3
Duration : 1h 23mn
Bit rate mode : Constant
Bit rate : 384 Kbps
Channel(s) : 6 channels
Channel positions : Front: L C R, Side: L R, LFE
Sampling rate : 48.0 KHz
Bit depth : 16 bits
Compression mode : Lossy
Stream size : 229 MiB (9%)
Language : English
Default : No
Forced : No

Text
ID : 4
Format : UTF-8
Codec ID : S_TEXT/UTF8
Codec ID/Info : UTF-8 Plain Text
Language : English
Default : No
Forced : No

Menu
00:00:00.000 : en:1
00:05:38.000 : en:2
00:10:56.000 : en:3
00:16:23.000 : en:4
00:19:49.000 : en:5
00:24:32.000 : en:6
00:29:32.000 : en:7
00:35:34.000 : en:8
00:40:24.000 : en:9
00:46:07.000 : en:10
00:50:46.000 : en:11
00:53:06.000 : en:12
00:59:26.000 : en:13
01:05:35.000 : en:14
01:11:31.000 : en:15
01:18:56.000 : en:16]




реклама партнёра


Вернуться к началу
 Профиль  
 
   Похожие торренты   Автор   Торрент   Размер 
В этой теме нет новых непрочитанных сообщений. Пища богов / Feed the Gods (Браден Крофт) [ужасы, триллер, приключения, 2014] WEB-DLRip, dvo

Dracon

1098 | 44

1.44 ГБ

В этой теме нет новых непрочитанных сообщений. Пища Богов / The Food of the Gods [ужасы, фантастика, 1976] DVDRip, Avo

salma3

16 | 4

1.37 ГБ

В этой теме нет новых непрочитанных сообщений. Страшная воля богов / Kamisama no iu tôri (Такаси Миике) [ужасы, триллер, 2014] WEB-DL 720p, Dub [iTunes]

Dracon

14 | 3

3.58 ГБ

В этой теме нет новых непрочитанных сообщений. Страшная воля богов / Kamisama no iu tori (Такаси Миике) [ужасы, триллер, 2014] BDRip 720p, Dub [iTunes]

Dracon

301 | 24

5 ГБ

В этой теме нет новых непрочитанных сообщений. Астерикс: Земля Богов / Astérix: Le domaine des dieux / Asterix: The Mansions of the Gods (Луис Клиши, Александр Астье) [мультфильм, приключения, фэнтези, комедия, 2014] BDRip 1080p, Dub [3D-Video]

Dracon

66 | 2

4.12 ГБ

В этой теме нет новых непрочитанных сообщений. Страшная воля богов / Kamisama no iu tori (Такаси Миике) [ужасы, триллер, 2014] HDRip, Dub [iTunes]

Dracon

2 | 0

2.04 ГБ

В этой теме нет новых непрочитанных сообщений. Страшная воля богов / Kamisama no iu tôri (Такаси Миике) [ужасы, триллер, 2014] WEB-DLRip, Dub [iTunes]

Dracon

51 | 4

1.46 ГБ


Начать новую тему Ответить на тему  [ 1 сообщение ] 




Для Мосгорсуда, Роскомнадзора и рекламодателей:: mosgorsud-torrent[собачка]yandex.ru