Торрент файл
скачать торрент магнет ссылка Добавлен: 20 апр 2015, 11:37
Размер: 1.46 ГБ
Сидеров: 18
Личеров: 2
Статус: (salma3)
Автор

СообщениеДобавлено: 20 апр 2015, 11:37 

Не в сети
Зам. Админа
Аватара пользователя
Дата регистрации:
02 дек 2010, 12:39
Спасибо: 12623 / 214
Сообщения: 28012
Год выхода: 2014
Жанр: комедия
Режиссер: Крис Рок
В ролях: Крис Рок, Розарио Доусон, Дж.Б. Смув, Гэбриэл Юнион, Романи Малко, Андерс Холм, Седрик «Развлекатель», Карли Льюис, Кевин Барнетт, Хейли Норман

О фильме:
История о комедийном актере, который пытается перестать шутить и начать вести себя как серьезный актер, когда его невеста, звезда реалити-шоу, уговаривает его устроить трансляцию их свадьбы на ее шоу...



Качество: HDRip
Видео: XviD, 720x304, 23.976 fps, ~1658 kbps
Аудио: 48 kHz, AC3, 6 ch, ~384 kbps
Продолжительность: 01:41:59
Перевод: Дублированный [iTunes]
G:Топ-5 (2014) HDRip.avi
   General
      Complete name : G:Топ-5 (2014) HDRip.avi
      Format : AVI
      Format/Info : Audio Video Interleave
      File size : 1.46 GiB
      Duration : 1h 41mn
      Overall bit rate : 2 051 Kbps
      Writing application : VirtualDubMod 1.5.10.2 (build 2540/release)
      Writing library : VirtualDubMod build 2540/release
   Video #0
      ID : 0
      Format : MPEG-4 Visual
      Format profile : Advanced Simple@L5
      Format settings, BVOP : 2
      Format settings, QPel : No
      Format settings, GMC : No warppoints
      Format settings, Matrix : Default (MPEG)
      Codec ID : XVID
      Codec ID/Hint : XviD
      Duration : 1h 41mn
      Bit rate : 1 658 Kbps
      Width : 720 pixels
      Height : 304 pixels
      Display aspect ratio : 2.35:1
      Frame rate : 23.976 fps
      Color space : YUV
      Chroma subsampling : 4:2:0
      Bit depth : 8 bits
      Scan type : Progressive
      Compression mode : Lossy
      Bits/(Pixel*Frame) : 0.316
      Stream size : 1.18 GiB (81%)
      Writing library : XviD 1.2.1 (UTC 2008-12-04)
   Audio #1
      ID : 1
      Format : AC-3
      Format/Info : Audio Coding 3
      Mode extension : CM (complete main)
      Format settings, Endianness : Big
      Codec ID : 2000
      Duration : 1h 41mn
      Bit rate mode : Constant
      Bit rate : 384 Kbps
      Channel(s) : 6 channels
      Channel positions : Front: L C R, Side: L R, LFE
      Sampling rate : 48.0 KHz
      Bit depth : 16 bits
      Compression mode : Lossy
      Stream size : 280 MiB (19%)
      Alignment : Split accross interleaves
      Interleave, duration : 42 ms (1.00 video frame)
      Interleave, preload duration : 500 ms








реклама партнёра


Вернуться к началу
 Профиль  
 
   Похожие торренты   Автор   Торрент   Размер 
В этой теме нет новых непрочитанных сообщений. Город героев / Big Hero 6 (Дон Холл, Крис Уильямс) [мультфильм, фантастика, комедия, семейный, боевик, 2014] HDRip, dub [iTunes]

Dracon

794 | 16

1.46 ГБ

В этой теме нет новых непрочитанных сообщений. Топ-5 / Top Five (Крис Рок) [комедия, 2014] BDRip 720p, Dub [iTunes]

Dracon

3 | 4

5.74 ГБ

В этой теме нет новых непрочитанных сообщений. Топ-5 / Top Five (Крис Рок) [комедия, 2014] BDRip 1080p, Dub [Itunes]

Dracon

66 | 2

11.67 ГБ

В этой теме нет новых непрочитанных сообщений. Город героев  / Big Hero 6 (Дон Холл, Крис Уильямс) [мультфильм, фантастика, комедия, семейный, боевик, 2014] BDRip 720p, Dub [iTunes] Avo+Sub

Dracon

15 | 5

3.76 ГБ

В этой теме нет новых непрочитанных сообщений. Город героев / Big Hero 6 (Дон Холл, Крис Уильямс) [мультфильм, фантастика, комедия, семейный, боевик, 2014] BDRip 1080p, Dub [iTunes] Avo+Sub

Dracon

172 | 10

8.3 ГБ

В этой теме нет новых непрочитанных сообщений. Город героев / Big Hero 6 (Дон Холл, Крис Уильямс) [мультфильм, фантастика, комедия, семейный, боевик, 2014] BDRip 1080p, Dub+Sub [3D-Video | iTunes]

Dracon

144 | 9

5.17 ГБ

В этой теме нет новых непрочитанных сообщений. Прежде чем мы расстанемся / Before We Go (Крис Эванс) [2014, драма, мелодрама, комедия, HDRip] mvo

Dracon

2834 | 511

1.45 ГБ


Начать новую тему Ответить на тему  [ 1 сообщение ] 




Для Мосгорсуда, Роскомнадзора и рекламодателей:: mosgorsud-torrent[собачка]yandex.ru