Торрент файл
скачать торрент магнет ссылка Добавлен: 18 апр 2015, 11:19
Размер: 1.45 ГБ
Сидеров: 1
Личеров: 3
Статус: (salma3)
Автор

СообщениеДобавлено: 18 апр 2015, 11:19 

Не в сети
Супермодератор
Аватара пользователя
Дата регистрации:
15 фев 2012, 16:44
Возраст: 27
Спасибо: 5121 / 2089
Сообщения: 17282
Что тебя не убивает / What Doesn't Kill You

Год выхода: 2008
Жанр: драма, криминал
Режиссер: Брайан Гудман

В ролях: Марк Руффало, Этан Хоук, Аманда Пит, Джей Джанноне, Мэнди Олсен, Брайан Гудман, Донни Уолберг, Анджела Фезерстоун, Бэрри Эйс, Майкл Балканофф

О фильме:
Это история двух друзей детства из неблагополучных семей. Еще в школе они начали заниматься вооруженными грабежами, что в итоге не уберегло их от наркотиков и тюрьмы. По прошествии срока друзья меняются, но судьба подкидывает им «ограбление века».

  

страна: США
Продолжительность: 01:40:03
Перевод: Профессиональный(двухголосый)

Файл
Качество: BDRip
Формат файла: AVI
Видео кодек: XviD
Аудио кодек: AC3
Видео кодек: XviD
Видео: XviD,720x304 , 23.976 fps, ~1684 Kbit/s
Аудио: 48 kHz, AC3 Dolby Digital, 3/2 (L,C,R,l,r) + LFE ch, ~384 kbps


Полное имя                               : E:ФИЛЬМЫChto.tebya.ne.ubivaet.2008.P2.BDRip.avi
Формат                                   : AVI
Формат/Информация                        : Audio Video Interleave
Размер файла                             : 1,45 Гбайт
Продолжительность                        : 1 ч. 40 м.
Общий поток                              : 2077 Кбит/сек
Название фильма                          : Что тебя не убивает / What Doesn't Kill You (2008) BDRip
Режиссёр                                 : yaroslaigor
Жанр                                     : драма, криминал
Программа кодирования                    : VirtualDubMod 1.5.10.2 (build 2540/release)
Правообладатель                          : http://hqclub.net/
Примечание                               : 31.07.2012

Видео
Идентификатор                            : 0
Формат                                   : MPEG-4 Visual
Профиль формата                          : Advanced Simple@L5
Параметр BVOP формата                    : 1
Параметр QPel формата                    : Нет
Параметр GMC формата                     : Без точки перехода
Параметр матрицы формата                 : Выборочная
Идентификатор кодека                     : XVID
Идентификатор кодека/Подсказка           : XviD
Продолжительность                        : 1 ч. 40 м.
Битрейт                                  : 1684 Кбит/сек
Ширина                                   : 720 пикселей
Высота                                   : 304 пикселя
Соотношение сторон                       : 2,35:1
Частота кадров                           : 23,976 кадра/сек
Цветовое пространство                    : YUV
Субдискретизация насыщенности            : 4:2:0
Битовая глубина                          : 8 бит
Тип развёртки                            : Прогрессивная
Метод сжатия                             : С потерями
Бит/(Пиксели*Кадры)                      : 0.321
Размер потока                            : 1,18 Гбайт (81%)
Библиотека кодирования                   : XviD 72

Аудио
Идентификатор                            : 1
Формат                                   : AC-3
Формат/Информация                        : Audio Coding 3
Расширение режима                        : CM (complete main)
Параметр Endianness формата              : Big
Идентификатор кодека                     : 2000
Продолжительность                        : 1 ч. 40 м.
Вид битрейта                             : Постоянный
Битрейт                                  : 384 Кбит/сек
Каналы                                   : 6 каналов
Расположение каналов                     : Front: L C R, Side: L R, LFE
Частота                                  : 48,0 КГц
Битовая глубина                          : 16 бит
Метод сжатия                             : С потерями
Размер потока                            : 275 Мбайт (18%)
Выравнивание                             : Разделение по промежуткам
Продолжительность промежутка             : 42  мс. (1,00 видеокадр)
Время предзагрузки промежутка            : 500  мс.

Доступно благодаря группе:


_________________



реклама партнёра


Вернуться к началу
 Профиль Отправить личное сообщение  
 
   Похожие торренты   Автор   Торрент   Размер 
В этой теме нет новых непрочитанных сообщений. Что тебя не убивает / What Doesn't Kill You [Драма, криминал, 2008] BDRip 720p, Dvo+sub

salma3

39 | 4

4.69 ГБ

В этой теме нет новых непрочитанных сообщений. Убей меня снова / Kill Me Again [Боевик, триллер, драма, криминал, 1989] BDRip, Mvo

salma3

0 | 1

1.45 ГБ

В этой теме нет новых непрочитанных сообщений. Убей меня снова / Kill Me Again [боевик, триллер, драма, криминал, 1989] BDRip 720p, Dvo+Mvo+Sub

salma3

81 | 41

4.93 ГБ

В этой теме нет новых непрочитанных сообщений. Убить короля / Номер в Шангри-Ла / Kill the King / Shangri-La Suite [Драма, мелодрама, криминал, 2015] BDRip 720р, Avo

salma3

0 | 0

10.35 ГБ

В этой теме нет новых непрочитанных сообщений. Убить короля / Номер в Шангри-Ла / Kill the King / Shangri-La Suite (Эдди О’Кифи) [2015, Драма, мелодрама, криминал, BDRip] avo

marya111

255 | 24

1.45 ГБ

В этой теме нет новых непрочитанных сообщений. 3 дня на убийство / 3 Days to Kill 3 дня на убийство / 3 Days to Kill [боевик, триллер, драма, 2014] BDRip 720p, Dub [Лицензия]

Dracon

865 | 51

3.48 ГБ

В этой теме нет новых непрочитанных сообщений. Теория убийств / Kill Theory [ужасы, триллер, 2008] BDRip 720p, Dub+Mvo

salma3

36 | 1

5.38 ГБ


Начать новую тему Ответить на тему  [ 1 сообщение ] 




Для Мосгорсуда, Роскомнадзора и рекламодателей:: mosgorsud-torrent[собачка]yandex.ru