Торрент файл
скачать торрент магнет ссылка Добавлен: 15 апр 2015, 23:39
Размер: 745.28 МБ
Сидеров: 282
Личеров: 16
Статус: (salma3)
Автор

СообщениеДобавлено: 15 апр 2015, 23:39 

Не в сети
Супермодератор
Аватара пользователя
Дата регистрации:
06 июн 2014, 07:51
Спасибо: 576 / 0
Сообщения: 2002
Информация о фильме
Название: Феникс
Оригинальное название: Phoenix
Год выхода: 2014
Жанр: драма, история
Режиссер: Кристиан Петцольд
В ролях: Нина Хосс, Рональд Церфельд, Нина Кунцендорф, Михаэль Мертенс, Имоген Когге, Керстен Блок, Уве Пройсс, Ева Бэй, Джефф Баррелл, София Эксс

О фильме:
Нелли Ленц, жертва Холокоста, которой удалось выжить в концлагере. Она ранена, у неё сильно искалечено лицо. Сотрудница Еврейского агентства Лене Винтер помогает Нелли добраться до Берлина, где ей сделали пластическую операцию. Поправившись после операции, Нелли начинает искать своего мужа, Йоханнса. Когда она наконец нашла его, Йоханнес не узнал свою жену, которую считает погибшей. Тем не менее, он признает, что эта незнакомая ему женщина похожа на его «покойную» жену. И тогда Йоханнес делает деловое предложение Нелли — она должна будет изображать его жену, чтобы получить состояние, которое ей досталось от семьи. Нелли соглашается…



Страна: Германия, Польша
Продолжительность: 01:38:00
Перевод: Любительский двухголосый [Студия Пиратского дубляжа]

Файл
Кодек: AVI (XviD)
Качество: HDRip (Исх. BDRip 720p)
Видео: 688x288 (2.39:1), 24.000 fps, XviD build 73 ~926 kbps avg, 0.19 bit/pixel
Звук: 48 kHz, MPEG Layer 3, 2 ch, ~128.00 kbps avg
Субтитры: нет

Семпл

Общее
Полное имя : S:ФильмыФеникс. 2014. HDRip. 745 (AleksSin).avi
Формат : AVI
Формат/Информация : Audio Video Interleave
Размер файла : 745 Мбайт
Продолжительность : 1 ч. 38 м.
Общий поток : 1063 Кбит/сек
Программа кодирования : VirtualDubMod 1.5.10.3 | http://www.virtualdub-fr.org || (build 2550/release)
Библиотека кодирования : VirtualDubMod build 2550/release

Видео
Идентификатор : 0
Формат : MPEG-4 Visual
Профиль формата : Advanced Simple@L5
Параметр BVOP формата : 1
Параметр QPel формата : Нет
Параметр GMC формата : Без точки перехода
Параметр матрицы формата : Выборочная
Идентификатор кодека : XVID
Идентификатор кодека/Подсказка : XviD
Продолжительность : 1 ч. 38 м.
Битрейт : 926 Кбит/сек
Ширина : 688 пикс.
Высота : 288 пикс.
Соотношение сторон : 2,40:1
Частота кадров : 24,000 кадр/сек
Цветовое пространство : YUV
Подвыборка цветности : 4:2:0
Битовая глубина : 8 бит
Тип развёртки : Прогрессивная
Метод сжатия : С потерями
Бит/(Пиксели*Кадры) : 0.195
Размер потока : 649 Мбайт (87%)
Библиотека кодирования : XviD 73

Аудио
Идентификатор : 1
Формат : MPEG Audio
Версия формата : Version 1
Профиль формата : Layer 3
Идентификатор кодека : 55
Идентификатор кодека/Подсказка : MP3
Продолжительность : 1 ч. 38 м.
Вид битрейта : Постоянный
Битрейт : 128 Кбит/сек
Каналы : 2 канала
Частота : 48,0 КГц
Метод сжатия : С потерями
Размер потока : 89,7 Мбайт (12%)
Выравнивание : Соединение по промежуткам
Продолжительность промежутка : 42 мс. (1,00 видеокадр)
Время предзагрузки промежутка : 504 ms
Библиотека кодирования : LAME3.99r
Настройки программы : -m s -V 4 -q 2 -lowpass 17 -b 128




реклама партнёра


Вернуться к началу
 Профиль Отправить личное сообщение  
 
   Похожие торренты   Автор   Торрент   Размер 
В этой теме нет новых непрочитанных сообщений. Феникс / Phoenix (Кристиан Петцольд) [драма, история, 2014] HDRip [Студия Пиратского дубляжа]

Dracon

18 | 4

1.37 ГБ

В этой теме нет новых непрочитанных сообщений. Феникс / Phoenix (Кристиан Петцольд) [драма, история, 2014] BDRip 1080p [Студия Пиратского дубляжа]

Марик

97 | 13

6.82 ГБ

В этой теме нет новых непрочитанных сообщений. Феникс и волшебный ковер / The Phoenix and the Magic Carpet [фэнтези, приключения, семейный, 1995] DVDRip, Mvo

salma3

53 | 9

1.46 ГБ

В этой теме нет новых непрочитанных сообщений. Птица Феникс и ковер-самолет / The Phoenix and the Carpet [фэнтези, приключения, семейный, 1997] DVDRip, Mvo

salma3

32 | 3

1.46 ГБ

В этой теме нет новых непрочитанных сообщений. Последнее турне /  Hin und weg (Кристиан Цюберт) [Драма, Комедия, 2014] HDRip, avo

Dracon

1 | 0

1.46 ГБ

В этой теме нет новых непрочитанных сообщений. Спасение / The Salvation (Кристиан Левринг) [2014, драма, вестерн, HDRip | Сербин] avo

Nickolas3435

108 | 5

1.46 ГБ

В этой теме нет новых непрочитанных сообщений. Спасение / The Salvation (Кристиан Левринг) [драма, вестерн, 2014] HDRip, Dub [Лицензия]

Dracon

0 | 0

1.37 ГБ


Начать новую тему Ответить на тему  [ 1 сообщение ] 




Для Мосгорсуда, Роскомнадзора и рекламодателей:: mosgorsud-torrent[собачка]yandex.ru