Торрент файл
скачать торрент магнет ссылка Добавлен: 15 апр 2015, 23:16
Размер: 4.38 ГБ
Сидеров: 16
Личеров: 3
Статус: (salma3)
Автор

СообщениеДобавлено: 15 апр 2015, 23:16 

Не в сети
Супермодератор
Аватара пользователя
Дата регистрации:
06 июн 2014, 07:51
Спасибо: 619 / 0
Сообщения: 2001

Год выпуска: 2012
Страна: Южная Корея
Жанр: драма, история
Продолжительность: 02:11:28
Перевод: любительский двухголосый, авторский
Режиссёр: Чан Мин Чу
В ролях: Бён Хон Ли, Сын Рён Рю, Хё Чжу Хан, Мён Гон Ким, Ин Квон Ким, Ын Гён Сим, Гван Чан, Эль Ли, Чжон Гын Син

Описание: Король Кван Хэ правил в течение 8 лет. Теперь же он подозревает, что кто-то из придворного окружения задумал его отравить. Стремясь защитить себя, король приказывает главному советнику найти ему двойника, который заменил бы короля на опасном ныне троне. Сыграть короля предстоит легкомысленному шуту Ха Суну, исполняющему непристойные спектакли перед дворянами. Начавшаяся как кратковременная прихоть, эта идея вскоре сыграет важную роль в жизни короля и его двойника и окажет значительное влияние на судьбу страны...



Качество: BDRip 720p Сравнение с исходником
Формат: MKV
Видео кодек: H.264
Аудио кодек: AC3
Видео: 3329 Кбит/с, 1280x544, 23,976 кадра/с
Аудио 1: русский, AC3, 448 kbps, 6 ch, 48 kHz [любительский двухголосый]
Аудио 2: русский, AC3, 448 kbps, 6 ch, 48 kHz [авторский, Юрий Сербин]
Аудио 3: корейский, AC3, 448 kbps, 6 ch, 48 kHz [оригинал]
Субтитры 1: русские
Субтитры 2: английские

frame I:198 Avg QP:14.25 size:115314
frame P:4279 Avg QP:14.98 size: 39357
frame B:16783 Avg QP:16.46 size: 11560

Общее
Уникальный идентификатор : 250443476891852093054604839657717236842 (0xBC69A8BE33A03EF096DC17924B86046A)
Полное имя : D:VideoMaskarad.2012.BDRip.720p.mkv
Формат : Matroska
Версия формата : Version 4 / Version 2
Размер файла : 4,38 Гбайт
Продолжительность : 2 ч. 11 м.
Общий поток : 4768 Кбит/сек
Название фильма : BDRip -- STarankov
Дата кодирования : UTC 2015-04-14 09:28:21
Программа кодирования : mkvmerge v7.8.0 ('River Man') 64bit built on Mar 27 2015 16:31:37
Библиотека кодирования : libebml v1.3.1 + libmatroska v1.4.2
_STATISTICS_WRITING_APP : mkvmerge v7.8.0 ('River Man') 64bit built on Mar 27 2015 16:31:37
_STATISTICS_WRITING_DATE_UTC : 2015-04-14 09:28:21
_STATISTICS_TAGS : BPS DURATION NUMBER_OF_FRAMES NUMBER_OF_BYTES
DURATION : 02:07:22.258000000
NUMBER_OF_FRAMES : 1231
NUMBER_OF_BYTES : 47741

Видео
Идентификатор : 1
Формат : AVC
Формат/Информация : Advanced Video Codec
Профиль формата : High@L4.1
Параметр CABAC формата : Да
Параметр ReFrames формата : 9 кадров
Идентификатор кодека : V_MPEG4/ISO/AVC
Продолжительность : 2 ч. 11 м.
Битрейт : 3329 Кбит/сек
Ширина : 1280 пикселей
Высота : 544 пикселя
Соотношение сторон : 2,35:1
Режим частоты кадров : Постоянный
Частота кадров : 23,976 кадра/сек
Цветовое пространство : YUV
Субдискретизация насыщенности : 4:2:0
Битовая глубина : 8 бит
Тип развёртки : Прогрессивная
Бит/(Пиксели*Кадры) : 0.199
Размер потока : 3,06 Гбайт (70%)
Библиотека кодирования : x264 core 146 r2538 121396c
Настройки программы : cabac=1 / ref=9 / deblock=1:-1:-1 / analyse=0x3:0x113 / me=umh / subme=10 / psy=1 / psy_rd=1.00:0.15 / mixed_ref=1 / me_range=32 / chroma_me=1 / trellis=2 / 8x8dct=1 / cqm=0 / deadzone=21,11 / fast_pskip=1 / chroma_qp_offset=-3 / threads=6 / lookahead_threads=1 / sliced_threads=0 / nr=0 / decimate=1 / interlaced=0 / bluray_compat=0 / constrained_intra=0 / bframes=12 / b_pyramid=2 / b_adapt=2 / b_bias=0 / direct=1 / weightb=1 / open_gop=0 / weightp=2 / keyint=230 / keyint_min=23 / scenecut=40 / intra_refresh=0 / rc_lookahead=40 / rc=crf / mbtree=0 / crf=17.0 / qcomp=0.60 / qpmin=0 / qpmax=69 / qpstep=4 / vbv_maxrate=40000 / vbv_bufsize=50000 / crf_max=0.0 / nal_hrd=none / filler=0 / ip_ratio=1.40 / pb_ratio=1.30 / aq=1:1.00
Язык : Korean
Default : Да
Forced : Нет
DURATION : 02:11:28.381000000
NUMBER_OF_FRAMES : 189132
NUMBER_OF_BYTES : 3373573187
_STATISTICS_WRITING_APP : mkvmerge v7.8.0 ('River Man') 64bit built on Mar 27 2015 16:31:37
_STATISTICS_WRITING_DATE_UTC : 2015-04-14 09:28:21
_STATISTICS_TAGS : BPS DURATION NUMBER_OF_FRAMES NUMBER_OF_BYTES

Аудио #1
Идентификатор : 2
Формат : AC-3
Формат/Информация : Audio Coding 3
Расширение режима : CM (complete main)
Параметр Endianness формата : Big
Идентификатор кодека : A_AC3
Продолжительность : 2 ч. 11 м.
Вид битрейта : Постоянный
Битрейт : 448 Кбит/сек
Каналы : 6 каналов
Расположение каналов : Front: L C R, Side: L R, LFE
Частота : 48,0 КГц
Битовая глубина : 16 бит
Метод сжатия : С потерями
Размер потока : 421 Мбайт (9%)
Заголовок : DVO (любительский)
Язык : Russian
Default : Да
Forced : Нет

Аудио #2
Идентификатор : 3
Формат : AC-3
Формат/Информация : Audio Coding 3
Расширение режима : CM (complete main)
Параметр Endianness формата : Big
Идентификатор кодека : A_AC3
Продолжительность : 2 ч. 11 м.
Вид битрейта : Постоянный
Битрейт : 448 Кбит/сек
Каналы : 6 каналов
Расположение каналов : Front: L C R, Side: L R, LFE
Частота : 48,0 КГц
Битовая глубина : 16 бит
Метод сжатия : С потерями
Размер потока : 421 Мбайт (9%)
Заголовок : AVO (Юрий Сербин)
Язык : Russian
Default : Нет
Forced : Нет

Аудио #3
Идентификатор : 4
Формат : AC-3
Формат/Информация : Audio Coding 3
Расширение режима : CM (complete main)
Параметр Endianness формата : Big
Идентификатор кодека : A_AC3
Продолжительность : 2 ч. 11 м.
Вид битрейта : Постоянный
Битрейт : 448 Кбит/сек
Каналы : 6 каналов
Расположение каналов : Front: L C R, Side: L R, LFE
Частота : 48,0 КГц
Битовая глубина : 16 бит
Метод сжатия : С потерями
Размер потока : 421 Мбайт (9%)
Заголовок : Original
Язык : Korean
Default : Нет
Forced : Нет

Текст #1
Идентификатор : 5
Формат : UTF-8
Идентификатор кодека : S_TEXT/UTF8
Идентификатор кодека/Информация : UTF-8 Plain Text
Заголовок : русские
Язык : Russian
Default : Нет
Forced : Нет

Текст #2
Идентификатор : 6
Формат : UTF-8
Идентификатор кодека : S_TEXT/UTF8
Идентификатор кодека/Информация : UTF-8 Plain Text
Заголовок : английские
Default : Нет
Forced : Нет





реклама партнёра


Вернуться к началу
 Профиль Отправить личное сообщение  
 
   Похожие торренты   Автор   Торрент   Размер 
В этой теме нет новых непрочитанных сообщений. Маскарад / Masquerade [триллер, драма, мелодрама, детектив, 1988] WEB-DL 720p, Avo+Dvo+Sub

salma3

17 | 2

2.93 ГБ

В этой теме нет новых непрочитанных сообщений. Маскарад / Maskerade [ужасы, триллер, 2011] BDRip 1080p, Dvo

salma3

112 | 20

6.96 ГБ

В этой теме нет новых непрочитанных сообщений. Нерассказанная история США Оливера Стоуна / The Untold History of the United States [01x00-09 из 10] [Документальный, история, 2012] HDTV 720p, Avo

Dracon

68 | 72

13.32 ГБ

В этой теме нет новых непрочитанных сообщений. Бен-Гур / Ben-Hur [драма, приключения, история, 2016] BDRip 720p, Dub [iTunes]

salma3

1949 | 405

8.83 ГБ

В этой теме нет новых непрочитанных сообщений. Ип Ман 3D / Yip Man 3 [боевик, драма, биография, история, 2015] BDRip 720p, Mvo

salma3

1277 | 74

4.46 ГБ

В этой теме нет новых непрочитанных сообщений. 33 / The 33 [драма, биография, история, 2015] BDRip 720p, Dub [SDI Media]

salma3

42 | 27

8.34 ГБ

В этой теме нет новых непрочитанных сообщений. Мюнхен / Munich [триллер, драма, история, 2005] BDRip 720p, Dub+Sub

salma3

98 | 10

5.75 ГБ


Начать новую тему Ответить на тему  [ 1 сообщение ] 




Для Мосгорсуда, Роскомнадзора и рекламодателей:: mosgorsud-torrent[собачка]yandex.ru