Торрент файл
скачать торрент магнет ссылка Добавлен: 14 апр 2015, 12:04
Размер: 8.72 ГБ
Сидеров: 60
Личеров: 14
Статус: (salma3)
Автор

СообщениеДобавлено: 14 апр 2015, 12:04 

Не в сети
Зам. Админа
Аватара пользователя
Дата регистрации:
02 дек 2010, 12:39
Спасибо: 12461 / 214
Сообщения: 27968
Год выхода: 1986-1992
Жанр: ужасы, фантастика, боевик, триллер, комедия
Режиссер: Стивен Херек, Мик Гэррис, Кристин Питерсон, Руперт Харви.




Год выпуска: 1986
Производство: США
Жанр: ужасы, фантастика, боевик, триллер, комедия
Продолжительность: 01:22:23
Перевод: Профессиональный (многоголосый закадровый), Авторский одноголосый (А. Гаврилов), Оригинал (Английский)
Субтитры: Русские, английские
Навигация по главам: Есть

Режиссер: Стивен Херек

В ролях: Ди Уоллас-Стоун, М. Эммет Уолш, Билли Грин Баш, Скотт Кримес, Надин Ван дер Велд, Дон Кейт Оппер, Билли Зейн, Этан

Филлипс, Терренс Манн, Джереми Лоуренс, Лин Шей, Майкл Ли Гогин, Арт Франкел, Дуглас Кот, Монтроз Хагинс.

О фильме: Они не вышли ростом, но по свирепости с ними не сравнится ни одно земное существо — это Зубастики! Мохнатые

безжалостные твари с ужасающей пастью прибыли из космоса, чтобы уничтожить цивилизацию людей.

И начали они с обычной сельской фермы в Канзасе, где сжирают всё, что попадается им на зуб (в том числе и людей). Хорошо, что в

космосе есть ещё и отважные герои, которые приходят на помощь перепуганным местным жителям. Только объединенные усилия и

хитроумная стратегия помогут победить прожорливых инопланетных зверушек.



Качество: WEB-DLRip-AVC
Формат: MKV
Видео: MPEG-4, 1024x576, 29.970 fps ~2444 kbps
Аудио 1) 48 KHz, AC3, 6 ch ~448 Kbps - DVO [Инис|Союз-Видео]
Аудио 2) 48 KHz, AC3, 6 ch ~448 Kbps - AVO [Гаврилов]
Аудио 3) 48 KHz, AC3, 6 ch ~448 Kbps - Original

General
Unique ID : 205193100038427261053437795683516547330 (0x9A5EC0EA4340F2C5BA1B260964080102)
Format : Matroska
Format version : Version 4 / Version 2
File size : 2.18 GiB
Duration : 1h 22mn
Overall bit rate : 3 788 Kbps
Encoded date : UTC 2015-02-14 05:47:42
Writing application : mkvmerge v7.6.0 ('Garden of Dreams') 64bit built on Feb 8 2015 13:04:34
Writing library : Lavf55.12.0
Attachements : cover.jpg

Video
ID : 1
Format : AVC
Format/Info : Advanced Video Codec
Format profile : High@L4.1
Format settings, CABAC : Yes
Format settings, ReFrames : 12 frames
Codec ID : V_MPEG4/ISO/AVC
Duration : 1h 22mn
Bit rate : 2 444 Kbps
Width : 1 024 pixels
Height : 576 pixels
Display aspect ratio : 16:9
Frame rate mode : Constant
Frame rate : 25.000 fps
Color space : YUV
Chroma subsampling : 4:2:0
Bit depth : 8 bits
Scan type : Progressive
Bits/(Pixel*Frame) : 0.166
Stream size : 1.36 GiB (63%)
Title : MPEG-4, 1024x576, 29.970 fps ~2444 kbps
Writing library : x264 core 142 r2479 dd79a61
Encoding settings : cabac=1 / ref=12 / deblock=1:-3:-2 / analyse=0x3:0x113 / me=umh / subme=10 / psy=1 / psy_rd=1.00:0.15 / mixed_ref=1 /

me_range=24 / chroma_me=1 / trellis=2 / 8x8dct=1 / cqm=0 / deadzone=21,11 / fast_pskip=0 / chroma_qp_offset=-3 / threads=3 /

lookahead_threads=1 / sliced_threads=0 / nr=0 / decimate=1 / interlaced=0 / bluray_compat=0 / constrained_intra=0 / bframes=15 / b_pyramid=2 /

b_adapt=2 / b_bias=0 / direct=3 / weightb=1 / open_gop=0 / weightp=2 / keyint=250 / keyint_min=25 / scenecut=40 / intra_refresh=0 /

rc_lookahead=50 / rc=2pass / mbtree=0 / bitrate=2444 / ratetol=1.0 / qcomp=0.60 / qpmin=0 / qpmax=69 / qpstep=4 / cplxblur=20.0 / qblur=0.5 /

vbv_maxrate=62500 / vbv_bufsize=78125 / nal_hrd=none / filler=0 / ip_ratio=1.40 / pb_ratio=1.30 / aq=1:1.00
Language : English
Default : Yes
Forced : No
Color primaries : BT.709
Transfer characteristics : BT.709
Matrix coefficients : BT.709
Color range : Limited
_STATISTICS_WRITING_APP : mkvmerge v7.6.0 ('Garden of Dreams') 64bit built on Feb 8 2015 13:04:34
_STATISTICS_WRITING_DATE_UT : 2015-02-14 05:47:42
_STATISTICS_TAGS : BPS DURATION NUMBER_OF_FRAMES NUMBER_OF_BYTES
DURATION : 01:22:22.280000000
NUMBER_OF_FRAMES : 123557
NUMBER_OF_BYTES : 1508807512

Audio #1
ID : 2
Format : AC-3
Format/Info : Audio Coding 3
Mode extension : CM (complete main)
Format settings, Endianness : Big
Codec ID : A_AC3
Duration : 1h 22mn
Bit rate mode : Constant
Bit rate : 448 Kbps
Channel(s) : 6 channels
Channel positions : Front: L C R, Side: L R, LFE
Sampling rate : 48.0 KHz
Bit depth : 16 bits
Compression mode : Lossy
Stream size : 264 MiB (12%)
Title : 48 KHz, AC3, 6 ch ~448 Kbps - DVO [Инис|Союз-Видео]
Language : Russian
Default : Yes
Forced : No
_STATISTICS_WRITING_APP : mkvmerge v7.6.0 ('Garden of Dreams') 64bit built on Feb 8 2015 13:04:34
_STATISTICS_WRITING_DATE_UT : 2015-02-14 05:47:42
_STATISTICS_TAGS : BPS DURATION NUMBER_OF_FRAMES NUMBER_OF_BYTES
DURATION : 01:22:23.808000000
NUMBER_OF_FRAMES : 154494
NUMBER_OF_BYTES : 276853248

Audio #2
ID : 3
Format : AC-3
Format/Info : Audio Coding 3
Mode extension : CM (complete main)
Format settings, Endianness : Big
Codec ID : A_AC3
Duration : 1h 22mn
Bit rate mode : Constant
Bit rate : 448 Kbps
Channel(s) : 6 channels
Channel positions : Front: L C R, Side: L R, LFE
Sampling rate : 48.0 KHz
Bit depth : 16 bits
Compression mode : Lossy
Stream size : 264 MiB (12%)
Title : 48 KHz, AC3, 6 ch ~448 Kbps - AVO [Гаврилов]
Language : Russian
Default : No
Forced : No
_STATISTICS_WRITING_APP : mkvmerge v7.6.0 ('Garden of Dreams') 64bit built on Feb 8 2015 13:04:34
_STATISTICS_WRITING_DATE_UT : 2015-02-14 05:47:42
_STATISTICS_TAGS : BPS DURATION NUMBER_OF_FRAMES NUMBER_OF_BYTES
DURATION : 01:22:21.664000000
NUMBER_OF_FRAMES : 154427
NUMBER_OF_BYTES : 276733184

Audio #3
ID : 4
Format : AC-3
Format/Info : Audio Coding 3
Mode extension : CM (complete main)
Format settings, Endianness : Big
Codec ID : A_AC3
Duration : 1h 22mn
Bit rate mode : Constant
Bit rate : 448 Kbps
Channel(s) : 6 channels
Channel positions : Front: L C R, Side: L R, LFE
Sampling rate : 48.0 KHz
Bit depth : 16 bits
Compression mode : Lossy
Stream size : 264 MiB (12%)
Title : 48 KHz, AC3, 6 ch ~448 Kbps - Original
Language : English
Default : No
Forced : No
_STATISTICS_WRITING_APP : mkvmerge v7.6.0 ('Garden of Dreams') 64bit built on Feb 8 2015 13:04:34
_STATISTICS_WRITING_DATE_UT : 2015-02-14 05:47:42
_STATISTICS_TAGS : BPS DURATION NUMBER_OF_FRAMES NUMBER_OF_BYTES
DURATION : 01:22:23.776000000
NUMBER_OF_FRAMES : 154493
NUMBER_OF_BYTES : 276851456

Text #1
ID : 5
Format : ASS
Codec ID : S_TEXT/ASS
Codec ID/Info : Advanced Sub Station Alpha
Compression mode : Lossless
Language : Russian
Default : No
Forced : No
_STATISTICS_WRITING_APP : mkvmerge v7.6.0 ('Garden of Dreams') 64bit built on Feb 8 2015 13:04:34
_STATISTICS_WRITING_DATE_UT : 2015-02-14 05:47:42
_STATISTICS_TAGS : BPS DURATION NUMBER_OF_FRAMES NUMBER_OF_BYTES
DURATION : 01:17:14.230000000
NUMBER_OF_FRAMES : 579
NUMBER_OF_BYTES : 38595

Text #2
ID : 6
Format : ASS
Codec ID : S_TEXT/ASS
Codec ID/Info : Advanced Sub Station Alpha
Compression mode : Lossless
Language : English
Default : No
Forced : No
_STATISTICS_WRITING_APP : mkvmerge v7.6.0 ('Garden of Dreams') 64bit built on Feb 8 2015 13:04:34
_STATISTICS_WRITING_DATE_UT : 2015-02-14 05:47:42
_STATISTICS_TAGS : BPS DURATION NUMBER_OF_FRAMES NUMBER_OF_BYTES
DURATION : 01:16:28.274000000
NUMBER_OF_FRAMES : 690
NUMBER_OF_BYTES : 34535

Menu
00:00:00.000 : :Chapter 1
00:04:57.080 : :Chapter 2
00:08:18.080 : :Chapter 3
00:10:32.080 : :Chapter 4
00:13:20.080 : :Chapter 5
00:17:28.080 : :Chapter 6
00:22:26.080 : :Chapter 7
00:25:59.120 : :Chapter 8
00:31:25.120 : :Chapter 9
00:37:51.120 : :Chapter 10
00:41:05.080 : :Chapter 11
00:43:08.080 : :Chapter 12
00:47:41.080 : :Chapter 13
00:52:28.080 : :Chapter 14
00:55:17.120 : :Chapter 15
00:57:03.120 : :Chapter 16
01:01:32.080 : :Chapter 17
01:06:47.080 : :Chapter 18
01:15:41.080 : :Chapter 19
01:18:19.080 : :Chapter 20
]





Год выпуска: 1988
Производство: США
Жанр: Ужасы, фантастика, триллер, комедия
Продолжительность: 01:22:23
Перевод: Профессиональный (многоголосый закадровый), Авторский одноголосый (А. Гаврилов), Оригинал (Английский)
Субтитры: Русские, английские
Навигация по главам: Есть

Режиссер: Мик Гэррис

В ролях: Терренс Манн, Дон Кит Оппер, Синтия Гэррис, Скотт Граймз, Аль Стивенсон, Том Ходжис, Дуглас Роу, Лиан Александра

Кёртис, Линдси Паркер, Херта Уэр, Сэм Андерсон, Лин Шэй, Бэрри Корбин, Эдди Дизен, Фрэнк Бирни, Дэвид Эрсин, Роксэнн Кернохан,

Грегори Патрик, Том Маклафлин, Патрик Кэмпбелл, Монтроуз Хагинс, Кендес Лофлин.

О фильме: Прошло 2 года с тех пор, как гадкие зубастые существа впервые терроризировали городок Гроверз Бенд и разгромили ферму

Браунов. Пришло время, и из огромных зеленых яиц стали вылупляться Зубастики, как раз ко дню Святой Пасхи. Сорвав церковную

службу, они вновь начинают пожирать все на своем пути. К счастью, в город приезжает храбрый юноша Брэд Браун, который

объединяется со своими старыми друзьями космическими охотниками и вступает в бой с Зубастиками.



Качество: WEB-DLRip-AVC
Формат: MKV
Видео: MPEG-4, 1024x576, 25.000 fps ~2450 kbps
Аудио 1) 48 KHz, AC3, 6 ch ~448 Kbps - DVO [Инис|Союз-Видео]
Аудио 2) 48 KHz, AC3, 6 ch ~448 Kbps - AVO [Гаврилов]
Аудио 3) 48 KHz, AC3, 6 ch ~448 Kbps - Original

General
Unique ID : 227704226416532105216586436688137164056 (0xAB4E3D22C70C55258D0A8F152FAC1518)
Format : Matroska
Format version : Version 4 / Version 2
File size : 2.18 GiB
Duration : 1h 22mn
Overall bit rate : 3 794 Kbps
Movie name : Critters 2
Encoded date : UTC 2015-03-14 05:13:54
Writing application : mkvmerge v7.7.0 ('Six Voices') 64bit built on Feb 28 2015 23:39:33
Writing library : Lavf55.12.0
Attachements : Cover.jpg

Video
ID : 1
Format : AVC
Format/Info : Advanced Video Codec
Format profile : High@L4.1
Format settings, CABAC : Yes
Format settings, ReFrames : 12 frames
Codec ID : V_MPEG4/ISO/AVC
Duration : 1h 22mn
Bit rate : 2 450 Kbps
Width : 1 024 pixels
Height : 576 pixels
Display aspect ratio : 16:9
Frame rate mode : Constant
Frame rate : 25.000 fps
Color space : YUV
Chroma subsampling : 4:2:0
Bit depth : 8 bits
Scan type : Progressive
Bits/(Pixel*Frame) : 0.166
Stream size : 1.36 GiB (63%)
Title : MPEG-4, 1024x576, 25.000 fps ~2450 kbps
Writing library : x264 core 142 r2479 dd79a61
Encoding settings : cabac=1 / ref=12 / deblock=1:-2:-2 / analyse=0x3:0x113 / me=umh / subme=10 / psy=1 / psy_rd=1.00:0.15 / mixed_ref=1 /

me_range=24 / chroma_me=1 / trellis=2 / 8x8dct=1 / cqm=0 / deadzone=21,11 / fast_pskip=0 / chroma_qp_offset=-3 / threads=3 /

lookahead_threads=1 / sliced_threads=0 / nr=0 / decimate=1 / interlaced=0 / bluray_compat=0 / constrained_intra=0 / bframes=14 / b_pyramid=2 /

b_adapt=2 / b_bias=0 / direct=3 / weightb=1 / open_gop=0 / weightp=2 / keyint=250 / keyint_min=25 / scenecut=40 / intra_refresh=0 /

rc_lookahead=50 / rc=2pass / mbtree=0 / bitrate=2450 / ratetol=1.0 / qcomp=0.60 / qpmin=0 / qpmax=69 / qpstep=4 / cplxblur=20.0 / qblur=0.5 /

vbv_maxrate=62500 / vbv_bufsize=78125 / nal_hrd=none / filler=0 / ip_ratio=1.40 / pb_ratio=1.30 / aq=1:1.00
Language : English
Default : Yes
Forced : No
Color primaries : BT.709
Transfer characteristics : BT.709
Matrix coefficients : BT.709
Color range : Limited
_STATISTICS_WRITING_APP : mkvmerge v7.7.0 ('Six Voices') 64bit built on Feb 28 2015 23:39:33
_STATISTICS_WRITING_DATE_UT : 2015-03-14 05:13:54
_STATISTICS_TAGS : BPS DURATION NUMBER_OF_FRAMES NUMBER_OF_BYTES
DURATION : 01:22:17.520000000
NUMBER_OF_FRAMES : 123438
NUMBER_OF_BYTES : 1510244900

Audio #1
ID : 2
Format : AC-3
Format/Info : Audio Coding 3
Mode extension : CM (complete main)
Format settings, Endianness : Big
Codec ID : A_AC3
Duration : 1h 22mn
Bit rate mode : Constant
Bit rate : 448 Kbps
Channel(s) : 6 channels
Channel positions : Front: L C R, Side: L R, LFE
Sampling rate : 48.0 KHz
Bit depth : 16 bits
Compression mode : Lossy
Stream size : 264 MiB (12%)
Title : 48 KHz, AC3, 6 ch ~448 Kbps - DVO [Инис|Союз-Видео]
Language : Russian
Default : Yes
Forced : No
_STATISTICS_WRITING_APP : mkvmerge v7.7.0 ('Six Voices') 64bit built on Feb 28 2015 23:39:33
_STATISTICS_WRITING_DATE_UT : 2015-03-14 05:13:54
_STATISTICS_TAGS : BPS DURATION NUMBER_OF_FRAMES NUMBER_OF_BYTES
DURATION : 01:22:17.568000000
NUMBER_OF_FRAMES : 154299
NUMBER_OF_BYTES : 276503808

Audio #2
ID : 3
Format : AC-3
Format/Info : Audio Coding 3
Mode extension : CM (complete main)
Format settings, Endianness : Big
Codec ID : A_AC3
Duration : 1h 22mn
Bit rate mode : Constant
Bit rate : 448 Kbps
Channel(s) : 6 channels
Channel positions : Front: L C R, Side: L R, LFE
Sampling rate : 48.0 KHz
Bit depth : 16 bits
Compression mode : Lossy
Stream size : 264 MiB (12%)
Title : 48 KHz, AC3, 6 ch ~448 Kbps - AVO [Гаврилов]
Language : Russian
Default : No
Forced : No
_STATISTICS_WRITING_APP : mkvmerge v7.7.0 ('Six Voices') 64bit built on Feb 28 2015 23:39:33
_STATISTICS_WRITING_DATE_UT : 2015-03-14 05:13:54
_STATISTICS_TAGS : BPS DURATION NUMBER_OF_FRAMES NUMBER_OF_BYTES
DURATION : 01:22:16.192000000
NUMBER_OF_FRAMES : 154256
NUMBER_OF_BYTES : 276426752

Audio #3
ID : 4
Format : AC-3
Format/Info : Audio Coding 3
Mode extension : CM (complete main)
Format settings, Endianness : Big
Codec ID : A_AC3
Duration : 1h 22mn
Bit rate mode : Constant
Bit rate : 448 Kbps
Channel(s) : 6 channels
Channel positions : Front: L C R, Side: L R, LFE
Sampling rate : 48.0 KHz
Bit depth : 16 bits
Compression mode : Lossy
Stream size : 264 MiB (12%)
Title : 48 KHz, AC3, 6 ch ~448 Kbps - Original
Language : English
Default : No
Forced : No
_STATISTICS_WRITING_APP : mkvmerge v7.7.0 ('Six Voices') 64bit built on Feb 28 2015 23:39:33
_STATISTICS_WRITING_DATE_UT : 2015-03-14 05:13:54
_STATISTICS_TAGS : BPS DURATION NUMBER_OF_FRAMES NUMBER_OF_BYTES
DURATION : 01:22:17.536000000
NUMBER_OF_FRAMES : 154298
NUMBER_OF_BYTES : 276502016

Text #1
ID : 5
Format : ASS
Codec ID : S_TEXT/ASS
Codec ID/Info : Advanced Sub Station Alpha
Compression mode : Lossless
Language : Russian
Default : No
Forced : No
_STATISTICS_WRITING_APP : mkvmerge v7.7.0 ('Six Voices') 64bit built on Feb 28 2015 23:39:33
_STATISTICS_WRITING_DATE_UT : 2015-03-14 05:13:54
_STATISTICS_TAGS : BPS DURATION NUMBER_OF_FRAMES NUMBER_OF_BYTES
DURATION : 01:17:58.470000000
NUMBER_OF_FRAMES : 627
NUMBER_OF_BYTES : 41083

Text #2
ID : 6
Format : ASS
Codec ID : S_TEXT/ASS
Codec ID/Info : Advanced Sub Station Alpha
Compression mode : Lossless
Language : English
Default : No
Forced : No
_STATISTICS_WRITING_APP : mkvmerge v7.7.0 ('Six Voices') 64bit built on Feb 28 2015 23:39:33
_STATISTICS_WRITING_DATE_UT : 2015-03-14 05:13:54
_STATISTICS_TAGS : BPS DURATION NUMBER_OF_FRAMES NUMBER_OF_BYTES
DURATION : 01:20:01.640000000
NUMBER_OF_FRAMES : 859
NUMBER_OF_BYTES : 43485

Menu
00:00:00.000 : :Chapter 1
00:04:41.080 : :Chapter 2
00:07:18.080 : :Chapter 3
00:09:57.080 : :Chapter 4
00:11:20.120 : :Chapter 5
00:14:45.080 : :Chapter 6
00:16:13.080 : :Chapter 7
00:18:31.120 : :Chapter 8
00:20:25.080 : :Chapter 9
00:23:59.120 : :Chapter 10
00:27:50.120 : :Chapter 11
00:33:19.080 : :Chapter 12
00:36:16.120 : :Chapter 13
00:38:33.120 : :Chapter 14
00:48:51.120 : :Chapter 15
00:56:36.120 : :Chapter 16
00:58:53.080 : :Chapter 17
01:05:19.120 : :Chapter 18
01:11:48.120 : :Chapter 19





Год выпуска: 1991
Производство: США
Жанр: Ужасы, фантастика, триллер, комедия
Продолжительность: 01:21:17
Перевод: Профессиональный (многоголосый закадровый), Авторский одноголосый (Гаврилов и Горчаков), Оригинал (Английский)
Субтитры: Русские, английские
Навигация по главам: Есть

Режиссер: Кристин Питерсон

В ролях: Джон Кэлвин, Айми Брукс, Кристиан Казинс, Джозеф Казинс, Уильям Дэннис Хант, Нина Аксельрод, Леонардо ДиКаприо, Дон

Кит Оппер, Джеффри Блейк, Хосе Луис Валансуэла, Диана Беллами, Кэтрин Кортес, Фрэнсис Бэй, Билл Закерт, Терренс Манн, Билли

Грин Буш, Скотт Граймз, Дэвид Эрсин, Надин Ван дер Велде, Ди Уоллес-Стоун.

О фильме: На этот раз мохнатые пришельцы из космоса захватывают дом в Лос-Анджелесе. Они выгоняют на улицу всех его

обитателей. Космический Охотник встает на их защиту и сам становится дичью, которую Зубастики преследуют во всех таинственных

уголках дома…



Качество: WEB-DLRip-AVC
Формат: MKV
Видео: MPEG-4, 1024x576, 25.000 fps ~2365 kbps
Аудио 1) 48 KHz, AC3, 6 ch ~448 Kbps - DVO [Инис|Союз-Видео]
Аудио 2) 48 KHz, AC3, 2 ch ~192 Kbps - MVO [ГТРК Россия]
Аудио 3) 48 KHz, AC3, 2 ch ~192 Kbps - AVO [Гаврилов]
Аудио 4) 48 KHz, AC3, 2 ch ~192 Kbps - AVO [Горчаков]
Аудио 5) 48 KHz, AC3, 6 ch ~448 Kbps - Original

General
Unique ID : 211001796156592003851695554622855610334 (0x9EBD77BEB5A6DAB391F4C000467C7FDE)
Format : Matroska
Format version : Version 4 / Version 2
File size : 2.18 GiB
Duration : 1h 21mn
Overall bit rate : 3 836 Kbps
Movie name : Critters 3
Encoded date : UTC 2015-03-14 05:16:54
Writing application : mkvmerge v7.7.0 ('Six Voices') 64bit built on Feb 28 2015 23:39:33
Writing library : Lavf55.12.0
Attachements : Cover.jpg

Video
ID : 1
Format : AVC
Format/Info : Advanced Video Codec
Format profile : High@L4.1
Format settings, CABAC : Yes
Format settings, ReFrames : 11 frames
Codec ID : V_MPEG4/ISO/AVC
Duration : 1h 21mn
Bit rate : 2 365 Kbps
Width : 1 024 pixels
Height : 576 pixels
Display aspect ratio : 16:9
Frame rate mode : Constant
Frame rate : 25.000 fps
Color space : YUV
Chroma subsampling : 4:2:0
Bit depth : 8 bits
Scan type : Progressive
Bits/(Pixel*Frame) : 0.160
Stream size : 1.30 GiB (60%)
Title : MPEG-4, 1024x576, 25.000 fps ~2365 kbps
Writing library : x264 core 142 r2479 dd79a61
Encoding settings : cabac=1 / ref=11 / deblock=1:-3:-2 / analyse=0x3:0x113 / me=umh / subme=10 / psy=1 / psy_rd=1.00:0.15 / mixed_ref=1 /

me_range=24 / chroma_me=1 / trellis=2 / 8x8dct=1 / cqm=0 / deadzone=21,11 / fast_pskip=0 / chroma_qp_offset=-3 / threads=3 /

lookahead_threads=1 / sliced_threads=0 / nr=0 / decimate=1 / interlaced=0 / bluray_compat=0 / constrained_intra=0 / bframes=13 / b_pyramid=2 /

b_adapt=2 / b_bias=0 / direct=3 / weightb=1 / open_gop=0 / weightp=2 / keyint=250 / keyint_min=25 / scenecut=40 / intra_refresh=0 /

rc_lookahead=50 / rc=2pass / mbtree=0 / bitrate=2365 / ratetol=1.0 / qcomp=0.60 / qpmin=0 / qpmax=69 / qpstep=4 / cplxblur=20.0 / qblur=0.5 /

vbv_maxrate=62500 / vbv_bufsize=78125 / nal_hrd=none / filler=0 / ip_ratio=1.40 / pb_ratio=1.30 / aq=1:1.00
Language : English
Default : Yes
Forced : No
Color primaries : BT.709
Transfer characteristics : BT.709
Matrix coefficients : BT.709
Color range : Limited
_STATISTICS_WRITING_APP : mkvmerge v7.7.0 ('Six Voices') 64bit built on Feb 28 2015 23:39:33
_STATISTICS_WRITING_DATE_UT : 2015-03-14 05:16:54
_STATISTICS_TAGS : BPS DURATION NUMBER_OF_FRAMES NUMBER_OF_BYTES
DURATION : 01:21:17.400000000
NUMBER_OF_FRAMES : 121935
NUMBER_OF_BYTES : 1441326155

Audio #1
ID : 2
Format : AC-3
Format/Info : Audio Coding 3
Mode extension : CM (complete main)
Format settings, Endianness : Big
Codec ID : A_AC3
Duration : 1h 21mn
Bit rate mode : Constant
Bit rate : 448 Kbps
Channel(s) : 6 channels
Channel positions : Front: L C R, Side: L R, LFE
Sampling rate : 48.0 KHz
Bit depth : 16 bits
Compression mode : Lossy
Stream size : 261 MiB (12%)
Title : 48 KHz, AC3, 6 ch ~448 Kbps - DVO [Инис|Союз-Видео]
Language : Russian
Default : Yes
Forced : No
_STATISTICS_WRITING_APP : mkvmerge v7.7.0 ('Six Voices') 64bit built on Feb 28 2015 23:39:33
_STATISTICS_WRITING_DATE_UT : 2015-03-14 05:16:54
_STATISTICS_TAGS : BPS DURATION NUMBER_OF_FRAMES NUMBER_OF_BYTES
DURATION : 01:21:20.704000000
NUMBER_OF_FRAMES : 152522
NUMBER_OF_BYTES : 273319424

Audio #2
ID : 3
Format : AC-3
Format/Info : Audio Coding 3
Mode extension : CM (complete main)
Format settings, Endianness : Big
Codec ID : A_AC3
Duration : 1h 21mn
Bit rate mode : Constant
Bit rate : 192 Kbps
Channel(s) : 2 channels
Channel positions : Front: L R
Sampling rate : 48.0 KHz
Bit depth : 16 bits
Compression mode : Lossy
Stream size : 112 MiB (5%)
Title : 48 KHz, AC3, 2 ch ~192 Kbps - MVO [ГТРК Россия]
Language : Russian
Default : No
Forced : No
_STATISTICS_WRITING_APP : mkvmerge v7.7.0 ('Six Voices') 64bit built on Feb 28 2015 23:39:33
_STATISTICS_WRITING_DATE_UT : 2015-03-14 05:16:54
_STATISTICS_TAGS : BPS DURATION NUMBER_OF_FRAMES NUMBER_OF_BYTES
DURATION : 01:21:17.184000000
NUMBER_OF_FRAMES : 152412
NUMBER_OF_BYTES : 117052416

Audio #3
ID : 4
Format : AC-3
Format/Info : Audio Coding 3
Mode extension : CM (complete main)
Format settings, Endianness : Big
Codec ID : A_AC3
Duration : 1h 21mn
Bit rate mode : Constant
Bit rate : 192 Kbps
Channel(s) : 2 channels
Channel positions : Front: L R
Sampling rate : 48.0 KHz
Bit depth : 16 bits
Compression mode : Lossy
Stream size : 112 MiB (5%)
Title : 48 KHz, AC3, 2 ch ~192 Kbps - AVO [Гаврилов]
Language : Russian
Default : No
Forced : No
_STATISTICS_WRITING_APP : mkvmerge v7.7.0 ('Six Voices') 64bit built on Feb 28 2015 23:39:33
_STATISTICS_WRITING_DATE_UT : 2015-03-14 05:16:54
_STATISTICS_TAGS : BPS DURATION NUMBER_OF_FRAMES NUMBER_OF_BYTES
DURATION : 01:21:17.472000000
NUMBER_OF_FRAMES : 152421
NUMBER_OF_BYTES : 117059328

Audio #4
ID : 5
Format : AC-3
Format/Info : Audio Coding 3
Mode extension : CM (complete main)
Format settings, Endianness : Big
Codec ID : A_AC3
Duration : 1h 21mn
Bit rate mode : Constant
Bit rate : 192 Kbps
Channel(s) : 2 channels
Channel positions : Front: L R
Sampling rate : 48.0 KHz
Bit depth : 16 bits
Compression mode : Lossy
Delay relative to video : -5ms
Stream size : 112 MiB (5%)
Title : 48 KHz, AC3, 2 ch ~192 Kbps - AVO [Горчаков]
Language : Russian
Default : No
Forced : No
_STATISTICS_WRITING_APP : mkvmerge v7.7.0 ('Six Voices') 64bit built on Feb 28 2015 23:39:33
_STATISTICS_WRITING_DATE_UT : 2015-03-14 05:16:54
_STATISTICS_TAGS : BPS DURATION NUMBER_OF_FRAMES NUMBER_OF_BYTES
DURATION : 01:20:45.152000000
NUMBER_OF_FRAMES : 151411
NUMBER_OF_BYTES : 116283648

Audio #5
ID : 6
Format : AC-3
Format/Info : Audio Coding 3
Mode extension : CM (complete main)
Format settings, Endianness : Big
Codec ID : A_AC3
Duration : 1h 21mn
Bit rate mode : Constant
Bit rate : 448 Kbps
Channel(s) : 6 channels
Channel positions : Front: L C R, Side: L R, LFE
Sampling rate : 48.0 KHz
Bit depth : 16 bits
Compression mode : Lossy
Stream size : 261 MiB (12%)
Title : 48 KHz, AC3, 6 ch ~448 Kbps - Original
Language : English
Default : No
Forced : No
_STATISTICS_WRITING_APP : mkvmerge v7.7.0 ('Six Voices') 64bit built on Feb 28 2015 23:39:33
_STATISTICS_WRITING_DATE_UT : 2015-03-14 05:16:54
_STATISTICS_TAGS : BPS DURATION NUMBER_OF_FRAMES NUMBER_OF_BYTES
DURATION : 01:21:20.672000000
NUMBER_OF_FRAMES : 152521
NUMBER_OF_BYTES : 273317632

Text #1
ID : 7
Format : ASS
Codec ID : S_TEXT/ASS
Codec ID/Info : Advanced Sub Station Alpha
Compression mode : Lossless
Language : Russian
Default : No
Forced : No
_STATISTICS_WRITING_APP : mkvmerge v7.7.0 ('Six Voices') 64bit built on Feb 28 2015 23:39:33
_STATISTICS_WRITING_DATE_UT : 2015-03-14 05:16:54
_STATISTICS_TAGS : BPS DURATION NUMBER_OF_FRAMES NUMBER_OF_BYTES
DURATION : 01:20:28.320000000
NUMBER_OF_FRAMES : 721
NUMBER_OF_BYTES : 50928

Text #2
ID : 8
Format : ASS
Codec ID : S_TEXT/ASS
Codec ID/Info : Advanced Sub Station Alpha
Compression mode : Lossless
Language : English
Default : No
Forced : No
_STATISTICS_WRITING_APP : mkvmerge v7.7.0 ('Six Voices') 64bit built on Feb 28 2015 23:39:33
_STATISTICS_WRITING_DATE_UT : 2015-03-14 05:16:54
_STATISTICS_TAGS : BPS DURATION NUMBER_OF_FRAMES NUMBER_OF_BYTES
DURATION : 01:18:20.666000000
NUMBER_OF_FRAMES : 930
NUMBER_OF_BYTES : 46805

Menu
00:00:00.000 : :Chapter 1
00:10:09.040 : :Chapter 2
00:19:23.440 : :Chapter 3
00:28:50.200 : :Chapter 4
00:38:49.640 : :Chapter 5
00:47:59.080 : :Chapter 6
00:57:49.920 : :Chapter 7
01:07:54.120 : :Chapter 8
01:17:35.240 : :Chapter 9






Год выпуска: 1992
Производство: США
Жанр: Фантастика, ужасы, комедия
Продолжительность: 01:30:42
Перевод: Профессиональный (многоголосый закадровый), Авторский одноголосый (Дохалов, Горчаков, Живов), Оригинал

(Английский)
Субтитры: Русские, английские
Навигация по главам: Есть

Режиссер: Руперт Харви

В ролях: Дон Оппер, Пол Уиттхорн, Анджела Бассетт, Андерс Хоув , Эрик ДаРе, Брэд Дуриф, Терренс Манн и др.

О фильме: В 1992 году в Канзасе были истреблены последние зубастики. Оставшиеся два яйца, в соответствии с законом о сохранении

исчезающих видов, были помещены в капсулу-холодильник и отправлены в космос. Но, как это часто случается, она затерялась в

бескрайних просторах Солнечной системы. 2045 год. На космический корабль с экспедицией землян попадает неопознанный летающий

объект. Злодей капитан вскрывает его, и оттуда появляются маленькие обжоры, начав быстро размножаться. Космическому охотнику

Чарли опять приходится вступать в дело…



Качество: WEB-DLRip-AVC
Формат: MKV
Видео: MPEG-4, 1024x576, 25.000 fps ~2100kbps
Аудио 1) 48 KHz, AC3, 6 ch ~448 Kbps - DVO [Инис|Союз-Видео]
Аудио 2) 48 KHz, AC3, 2 ch ~192 Kbps - AVO [Дохалов]
Аудио 3) 48 KHz, AC3, 2 ch ~192 Kbps - AVO [Горчаков]
Аудио 4) 48 KHz, AC3, 2 ch ~192 Kbps - AVO [Живов]
Аудио 5) 48 KHz, AC3, 6 ch ~448 Kbps - Original

General
Unique ID : 173226062115892930780826486213591229832 (0x82522042B2A522C1BF285BC28ECCE588)
Complete name : E:VideoЗубастики-Квадрология [1986-1992]Зубастики 4 (1992).mkv
Format : Matroska
Format version : Version 4 / Version 2
File size : 2.18 GiB
Duration : 1h 30mn
Overall bit rate : 3 445 Kbps
Movie name : Critters 4
Encoded date : UTC 2015-03-18 12:33:32
Writing application : mkvmerge v7.7.0 ('Six Voices') 64bit built on Feb 28 2015 23:39:33
Writing library : Lavf55.12.0
Attachements : Cover.jpg

Video
ID : 1
Format : AVC
Format/Info : Advanced Video Codec
Format profile : High@L4.1
Format settings, CABAC : Yes
Format settings, ReFrames : 11 frames
Codec ID : V_MPEG4/ISO/AVC
Duration : 1h 30mn
Bit rate : 2 100 Kbps
Width : 1 024 pixels
Height : 576 pixels
Display aspect ratio : 16:9
Frame rate mode : Constant
Frame rate : 25.000 fps
Color space : YUV
Chroma subsampling : 4:2:0
Bit depth : 8 bits
Scan type : Progressive
Bits/(Pixel*Frame) : 0.142
Stream size : 1.29 GiB (59%)
Title : MPEG-4, 1024x576, 25.000 fps ~2100 kbps
Writing library : x264 core 142 r2479 dd79a61
Encoding settings : cabac=1 / ref=11 / deblock=1:-3:-3 / analyse=0x3:0x113 / me=umh / subme=10 / psy=1 / psy_rd=1.00:0.15 / mixed_ref=1 /

me_range=24 / chroma_me=1 / trellis=2 / 8x8dct=1 / cqm=0 / deadzone=21,11 / fast_pskip=0 / chroma_qp_offset=-3 / threads=3 /

lookahead_threads=1 / sliced_threads=0 / nr=0 / decimate=1 / interlaced=0 / bluray_compat=0 / constrained_intra=0 / bframes=16 / b_pyramid=2 /

b_adapt=2 / b_bias=0 / direct=3 / weightb=1 / open_gop=0 / weightp=2 / keyint=250 / keyint_min=25 / scenecut=40 / intra_refresh=0 /

rc_lookahead=50 / rc=2pass / mbtree=0 / bitrate=2100 / ratetol=1.0 / qcomp=0.60 / qpmin=0 / qpmax=69 / qpstep=4 / cplxblur=20.0 / qblur=0.5 /

vbv_maxrate=62500 / vbv_bufsize=78125 / nal_hrd=none / filler=0 / ip_ratio=1.40 / pb_ratio=1.30 / aq=1:1.00
Language : English
Default : Yes
Forced : No
Color primaries : BT.709
Transfer characteristics : BT.709
Matrix coefficients : BT.709
Color range : Limited
DURATION : 01:30:37.880000000
NUMBER_OF_FRAMES : 135947
NUMBER_OF_BYTES : 1426860469
_STATISTICS_WRITING_APP : mkvmerge v7.7.0 ('Six Voices') 64bit built on Feb 28 2015 23:39:33
_STATISTICS_WRITING_DATE_UT : 2015-03-18 12:33:32
_STATISTICS_TAGS : BPS DURATION NUMBER_OF_FRAMES NUMBER_OF_BYTES

Audio #1
ID : 2
Format : AC-3
Format/Info : Audio Coding 3
Mode extension : CM (complete main)
Format settings, Endianness : Big
Codec ID : A_AC3
Duration : 1h 30mn
Bit rate mode : Constant
Bit rate : 384 Kbps
Channel(s) : 6 channels
Channel positions : Front: L C R, Side: L R, LFE
Sampling rate : 48.0 KHz
Bit depth : 16 bits
Compression mode : Lossy
Delay relative to video : -5ms
Stream size : 249 MiB (11%)
Title : 48 KHz, AC3, 6 ch ~384 Kbps - DVO [Инис|Союз-Видео]
Language : Russian
Default : Yes
Forced : No
DURATION : 01:30:42.912000000
NUMBER_OF_FRAMES : 170091
NUMBER_OF_BYTES : 261259776
_STATISTICS_WRITING_APP : mkvmerge v7.7.0 ('Six Voices') 64bit built on Feb 28 2015 23:39:33
_STATISTICS_WRITING_DATE_UT : 2015-03-18 12:33:32
_STATISTICS_TAGS : BPS DURATION NUMBER_OF_FRAMES NUMBER_OF_BYTES

Audio #2
ID : 3
Format : AC-3
Format/Info : Audio Coding 3
Mode extension : CM (complete main)
Format settings, Endianness : Big
Codec ID : A_AC3
Duration : 1h 30mn
Bit rate mode : Constant
Bit rate : 192 Kbps
Channel(s) : 2 channels
Channel positions : Front: L R
Sampling rate : 48.0 KHz
Bit depth : 16 bits
Compression mode : Lossy
Stream size : 125 MiB (6%)
Title : 48 KHz, AC3, 2 ch ~192 Kbps - AVO [Дохалов]
Language : Russian
Default : No
Forced : No
DURATION : 01:30:42.880000000
NUMBER_OF_FRAMES : 170090
NUMBER_OF_BYTES : 130629120
_STATISTICS_WRITING_APP : mkvmerge v7.7.0 ('Six Voices') 64bit built on Feb 28 2015 23:39:33
_STATISTICS_WRITING_DATE_UT : 2015-03-18 12:33:32
_STATISTICS_TAGS : BPS DURATION NUMBER_OF_FRAMES NUMBER_OF_BYTES

Audio #3
ID : 4
Format : AC-3
Format/Info : Audio Coding 3
Mode extension : CM (complete main)
Format settings, Endianness : Big
Codec ID : A_AC3
Duration : 1h 30mn
Bit rate mode : Constant
Bit rate : 192 Kbps
Channel(s) : 2 channels
Channel positions : Front: L R
Sampling rate : 48.0 KHz
Bit depth : 16 bits
Compression mode : Lossy
Stream size : 125 MiB (6%)
Title : 48 KHz, AC3, 2 ch ~192 Kbps - AVO [Горчаков]
Language : Russian
Default : No
Forced : No
DURATION : 01:30:42.880000000
NUMBER_OF_FRAMES : 170090
NUMBER_OF_BYTES : 130629120
_STATISTICS_WRITING_APP : mkvmerge v7.7.0 ('Six Voices') 64bit built on Feb 28 2015 23:39:33
_STATISTICS_WRITING_DATE_UT : 2015-03-18 12:33:32
_STATISTICS_TAGS : BPS DURATION NUMBER_OF_FRAMES NUMBER_OF_BYTES

Audio #4
ID : 5
Format : AC-3
Format/Info : Audio Coding 3
Mode extension : CM (complete main)
Format settings, Endianness : Big
Codec ID : A_AC3
Duration : 1h 30mn
Bit rate mode : Constant
Bit rate : 192 Kbps
Channel(s) : 2 channels
Channel positions : Front: L R
Sampling rate : 48.0 KHz
Bit depth : 16 bits
Compression mode : Lossy
Stream size : 125 MiB (6%)
Title : 48 KHz, AC3, 2 ch ~192 Kbps - AVO [Живов]
Language : Russian
Default : No
Forced : No
DURATION : 01:30:42.944000000
NUMBER_OF_FRAMES : 170092
NUMBER_OF_BYTES : 130630656
_STATISTICS_WRITING_APP : mkvmerge v7.7.0 ('Six Voices') 64bit built on Feb 28 2015 23:39:33
_STATISTICS_WRITING_DATE_UT : 2015-03-18 12:33:32
_STATISTICS_TAGS : BPS DURATION NUMBER_OF_FRAMES NUMBER_OF_BYTES

Audio #5
ID : 6
Format : AC-3
Format/Info : Audio Coding 3
Mode extension : CM (complete main)
Format settings, Endianness : Big
Codec ID : A_AC3
Duration : 1h 30mn
Bit rate mode : Constant
Bit rate : 384 Kbps
Channel(s) : 6 channels
Channel positions : Front: L C R, Side: L R, LFE
Sampling rate : 48.0 KHz
Bit depth : 16 bits
Compression mode : Lossy
Delay relative to video : -5ms
Stream size : 249 MiB (11%)
Title : 48 KHz, AC3, 6 ch ~384 Kbps - Original
Language : English
Default : No
Forced : No
DURATION : 01:30:42.880000000
NUMBER_OF_FRAMES : 170090
NUMBER_OF_BYTES : 261258240
_STATISTICS_WRITING_APP : mkvmerge v7.7.0 ('Six Voices') 64bit built on Feb 28 2015 23:39:33
_STATISTICS_WRITING_DATE_UT : 2015-03-18 12:33:32
_STATISTICS_TAGS : BPS DURATION NUMBER_OF_FRAMES NUMBER_OF_BYTES

Text #1
ID : 7
Format : ASS
Codec ID : S_TEXT/ASS
Codec ID/Info : Advanced Sub Station Alpha
Compression mode : Lossless
Language : Russian
Default : No
Forced : No
DURATION : 01:26:17.430000000
NUMBER_OF_FRAMES : 706
NUMBER_OF_BYTES : 51138
_STATISTICS_WRITING_APP : mkvmerge v7.7.0 ('Six Voices') 64bit built on Feb 28 2015 23:39:33
_STATISTICS_WRITING_DATE_UT : 2015-03-18 12:33:32
_STATISTICS_TAGS : BPS DURATION NUMBER_OF_FRAMES NUMBER_OF_BYTES

Text #2
ID : 8
Format : ASS
Codec ID : S_TEXT/ASS
Codec ID/Info : Advanced Sub Station Alpha
Compression mode : Lossless
Language : English
Default : No
Forced : No
DURATION : 01:24:42.200000000
NUMBER_OF_FRAMES : 968
NUMBER_OF_BYTES : 47662
_STATISTICS_WRITING_APP : mkvmerge v7.7.0 ('Six Voices') 64bit built on Feb 28 2015 23:39:33
_STATISTICS_WRITING_DATE_UT : 2015-03-18 12:33:32
_STATISTICS_TAGS : BPS DURATION NUMBER_OF_FRAMES NUMBER_OF_BYTES

Menu
00:00:00.000 : :Chapter 1
00:08:09.120 : :Chapter 2
00:12:34.080 : :Chapter 3
00:19:50.080 : :Chapter 4
00:24:55.120 : :Chapter 5
00:26:49.080 : :Chapter 6
00:29:34.120 : :Chapter 7
00:33:35.120 : :Chapter 8
00:37:24.080 : :Chapter 9
00:41:41.120 : :Chapter 10
00:45:15.120 : :Chapter 11
00:48:37.120 : :Chapter 12
00:50:37.080 : :Chapter 13
00:53:44.120 : :Chapter 14
00:59:49.120 : :Chapter 15
01:02:45.120 : :Chapter 16
01:07:12.080 : :Chapter 17
01:11:59.080 : :Chapter 18
01:24:01.120 : :Chapter 19
01:26:59.120 : :Chapter 20
]




реклама партнёра


Вернуться к началу
 Профиль  
 
   Похожие торренты   Автор   Торрент   Размер 
В этой теме нет новых непрочитанных сообщений. Крик. Квадрология / Scream. Quadrilogy (Уэс Крэйвен) [1996, 1997, 1999, 2011, ужасы, триллер, детектив, BDRip]

Dracon

19 | 1

5.47 ГБ

В этой теме нет новых непрочитанных сообщений. Рождественские страшилки / A Christmas Horror Story (Грант Харви, Стивен Хобан) [Ужасы, 2015] WEB-DLRip, dvo

Dracon

3239 | 128

1.46 ГБ

В этой теме нет новых непрочитанных сообщений. Страшная рождественская история / A Christmas Horror Story (Грант Харви, Стивен Хобан) [Ужасы, 2015] WEB-DL 720p, dvo

Dracon

823 | 53

3.15 ГБ

В этой теме нет новых непрочитанных сообщений. Максимальное ускорение / Maximum Overdrive [Ужасы, фантастика, боевик, триллер, 1986] BDRip 1080p, Mvo+Avo+Sub

salma3

28 | 5

7.18 ГБ

В этой теме нет новых непрочитанных сообщений. Считанные секунды / Split second [ужасы, фантастика, боевик, триллер, криминал, 1992] BDRip AVC, 3Mvo+Avo+Sub

salma3

113 | 3

2.89 ГБ

В этой теме нет новых непрочитанных сообщений. Считанные секунды / Split second [ужасы, фантастика, боевик, триллер, криминал, 1992] BDRip 1080p, 3Mvo+Avo+Sub

salma3

76 | 9

9.6 ГБ

В этой теме нет новых непрочитанных сообщений. Считанные секунды / Split second [ужасы, фантастика, боевик, триллер, криминал, 1992] BDRip 720p, 3Mvo+Avo+Sub

salma3

115 | 9

4.2 ГБ


Начать новую тему Ответить на тему  [ 1 сообщение ] 




Для Мосгорсуда, Роскомнадзора и рекламодателей:: mosgorsud-torrent[собачка]yandex.ru