Торрент файл
скачать торрент магнет ссылка Добавлен: 12 апр 2015, 11:36
Размер: 1.71 ГБ
Сидеров: 103
Личеров: 7
Статус: (salma3)
Автор

СообщениеДобавлено: 12 апр 2015, 11:36 

Не в сети
Супермодератор
Аватара пользователя
Дата регистрации:
15 фев 2012, 16:44
Возраст: 27
Спасибо: 5139 / 2089
Сообщения: 17423
Суперфорсаж! / Superfast!

Год выхода: 2015
Жанр: комедия
Режиссер: Джейсон Фридберг, Аарон Зельцер

В ролях: Лили Мирожник, Дэйл Павински, Андреа Наведо, Шантель Вислэвски, Дэниэл Буко, Майкл Флорес, Вероника МакКласки, Гонсало Менендес, Алекс Ашбаух, Дио Джонсон

О фильме:
Известные комики вновь принялись за работу. На их счету уже не одна пародия на самые известные и популярные кинокартины. На этот раз парни взялись за мегапопулярный фильм «Форсаж», состоящий из нескольких частей. К тому же они приплели сюда и другие фильмы о гонках, крутых тачках и ограблениях. Здесь зритель увидит массу нелепых ситуаций, от души посмеется над шутками и узнает, что такое беспощадная и жестокая ирония.



Выпущено: США / 3 in the Box, Safran Company
Продолжительность: 01:35:14
Озвучивание: Дублированное [iTunes]

Файл
Качество: WEB-DLRip-AVC
Формат файла: AVC
Видео кодек: MPEG-4
Аудио кодек: AC3
Видео: MPEG-4 AVC, 2188 Кбит/с, 1024х576
Аудио: AC3, 6 ch, 384 Кбит/с


General
Unique ID : 239771555640416469448011400694411567114 (0xB4625266DC280D949E9FAB152EB8200A)
Complete name : C:Superfast.2015.D.WEB-DLRip.AVC.ExKinoRay.mkv
Format : Matroska
Format version : Version 4 / Version 2
File size : 1.71 GiB
Duration : 1h 35mn
Overall bit rate : 2 572 Kbps
Movie name : Superfast 2015 from ExKinoRay
Encoded date : UTC 2015-04-12 03:45:06
Writing application : mkvmerge v6.6.0 ('The Edge Of The In Between') built on Dec 1 2013 17:55:00
Writing library : libebml v1.3.0 + libmatroska v1.4.1

Video
ID : 1
Format : AVC
Format/Info : Advanced Video Codec
Format profile : High@L4.1
Format settings, CABAC : Yes
Format settings, ReFrames : 10 frames
Codec ID : V_MPEG4/ISO/AVC
Duration : 1h 35mn
Bit rate : 2 188 Kbps
Width : 1 024 pixels
Height : 576 pixels
Display aspect ratio : 16:9
Frame rate mode : Constant
Frame rate : 25.000 fps
Color space : YUV
Chroma subsampling : 4:2:0
Bit depth : 8 bits
Scan type : Progressive
Bits/(Pixel*Frame) : 0.148
Stream size : 1.42 GiB (83%)
Title : Enigma
Writing library : x264 core 133 r2334 a3ac64b
Encoding settings : cabac=1 / ref=10 / deblock=1:-2:-2 / analyse=0x3:0x113 / me=umh / subme=10 / psy=1 / psy_rd=1.00:0.15 / mixed_ref=1 / me_range=32 / chroma_me=1 / trellis=2 / 8x8dct=1 / cqm=0 / deadzone=21,11 / fast_pskip=0 / chroma_qp_offset=-3 / threads=12 / lookahead_threads=2 / sliced_threads=0 / nr=0 / decimate=0 / interlaced=0 / bluray_compat=0 / constrained_intra=0 / bframes=9 / b_pyramid=2 / b_adapt=2 / b_bias=0 / direct=3 / weightb=1 / open_gop=0 / weightp=2 / keyint=250 / keyint_min=25 / scenecut=40 / intra_refresh=0 / rc=2pass / mbtree=0 / bitrate=2188 / ratetol=1.0 / qcomp=0.60 / qpmin=0 / qpmax=51 / qpstep=4 / cplxblur=20.0 / qblur=0.5 / ip_ratio=1.40 / pb_ratio=1.30 / aq=1:1.00
Language : English
Default : Yes
Forced : No
Color primaries : BT.709
Transfer characteristics : BT.709
Matrix coefficients : BT.709

Audio
ID : 2
Format : AC-3
Format/Info : Audio Coding 3
Mode extension : CM (complete main)
Format settings, Endianness : Big
Codec ID : A_AC3
Duration : 1h 35mn
Bit rate mode : Constant
Bit rate : 384 Kbps
Channel(s) : 6 channels
Channel positions : Front: L C R, Side: L R, LFE
Sampling rate : 48.0 KHz
Bit depth : 16 bits
Compression mode : Lossy
Stream size : 262 MiB (15%)
Title : iTunes
Language : Russian
Default : Yes
Forced : No

Menu
00:00:00.000 : en:Глава 1
00:05:11.000 : en:Глава 2
00:12:34.000 : en:Глава 3
00:17:33.000 : en:Глава 4
00:23:59.000 : en:Глава 5
00:31:47.000 : en:Глава 6
00:35:50.000 : en:Глава 7
00:41:20.000 : en:Глава 8
00:44:37.000 : en:Глава 9
00:49:49.000 : en:Глава 10
00:54:34.000 : en:Глава 11
01:00:01.000 : en:Глава 12
01:04:54.000 : en:Глава 13
01:11:02.000 : en:Глава 14
01:15:51.000 : en:Глава 15
01:20:20.000 : en:Глава 16
01:25:48.000 : en:Глава 17




Релиз от: Автор релиза:


_________________



реклама партнёра


Вернуться к началу
 Профиль Отправить личное сообщение  
 
   Похожие торренты   Автор   Торрент   Размер 
В этой теме нет новых непрочитанных сообщений. Суперфорсаж! / Superfast! (Джейсон Фридберг, Аарон Зельцер) [комедия, 2015] WEB-DLRip, Dub [iTunes]

salma3

1026 | 273

1.46 ГБ

В этой теме нет новых непрочитанных сообщений. Суперфорсаж! / Superfast! (Джейсон Фридберг, Аарон Зельцер) [комедия, 2015] WEB-DL 1080p, Dub [iTunes]

Dracon

328 | 13

3.62 ГБ

В этой теме нет новых непрочитанных сообщений. Суперфорсаж! / Superfast! (Джейсон Фридберг, Аарон Зельцер) [комедия, 2015] WEB-DL 720p, Dub [iTunes]

salma3

563 | 32

2.89 ГБ

В этой теме нет новых непрочитанных сообщений. Суперфорсаж! / Superfast! (Джейсон Фридберг, Аарон Зельцер) [комедия, 2015] WEBRip, dub [Чистый звук]

Dracon

380 | 45

703.14 МБ

В этой теме нет новых непрочитанных сообщений. Третий лишний 2 / Ted 2 (Сет МакФарлейн) [комедия, 2015] WEB-DLRip, Dub [iTunes]

slawa4155

43 | 2

2.05 ГБ

В этой теме нет новых непрочитанных сообщений. Простушка / The DUFF (Эри Сандел) [комедия, 2015] WEB-DLRip, Dub [iTunes]

Dracon

5919 | 182

1.46 ГБ

В этой теме нет новых непрочитанных сообщений. Страна ОЗ (Василий Сигарев) [Комедия, 2015] WEB-DLRip [iTunes]

Dracon

15340 | 2170

1.46 ГБ


Начать новую тему Ответить на тему  [ 1 сообщение ] 




Для Мосгорсуда, Роскомнадзора и рекламодателей:: mosgorsud-torrent[собачка]yandex.ru