Торрент файл
скачать торрент магнет ссылка Добавлен: 07 апр 2015, 12:20
Размер: 2.17 ГБ
Сидеров: 313
Личеров: 24
Статус: (salma3)
Автор

СообщениеДобавлено: 07 апр 2015, 12:20 

Не в сети
Зам. Админа
Аватара пользователя
Дата регистрации:
02 дек 2010, 12:39
Спасибо: 12460 / 214
Сообщения: 27968
Год выхода: 2014
Жанр: Фэнтези, комедия, семейный, мюзикл
Режиссер: Роб Маршалл
В ролях: Мэрил Стрип, Эмили Блант, Джеймс Корден, Анна Кендрик, Крис Пайн, Джонни Депп, Дэниэл Хаттлстоун, Кристин Барански, Тэмми Бланчард, Люси Панч, Трэйси Уллмэн, Лилла Кроуфорд, Саймон Расселл Бил, Джоанна Райдинг

О фильме:
Золушка мечтает попасть на бал, Пекарь, когда-то проклятый Ведьмой, и его Жена горюют о том, что у них нет ребенка, Джек хочет, чтобы его корова Беляночка наконец-то дала молоко, его Мать мечтает быть богатой, а Красной Шапочке очень нужен каравай хлеба — гостинец для Бабушки, которая живет в лесу… и, может быть, немного сластей для себя лично. Наконец, Ведьма, живущая по соседству с Пекарем, мечтает вернуть себе молодость и красоту, которые она утратила по несчастному стечению обстоятельств. Для этого она предлагает Пекарю в обмен на снятие проклятия помочь ей и добыть необходимые составляющие для волшебного напитка: корову, белую, как молоко, плащ, красный как кровь, прядь волос, желтых, как кукуруза, и золотые туфельки…


Страна: США
Студия: Walt Disney Pictures, Lucamar Productions, Marc Platt Productions
Продолжительность: 02:04:46
Перевод: Дублированный (iTunes)

Кодек: MPEG-4 AVC
Качество: HDRip-AVC
Видео: 1726 Кбит/с, 720х302
Звук: Русский, английский (AC3, 6 ch, 384 Кбит/с)
Субтитры: Русские (форс., полные), английские
General
Unique ID : 197628498824616058845647448459784741991 (0x94ADDD47AF2138AE9B1E0E243D2BE467)
Complete name : C:Into.the.Woods.2014.D.HDRip.AVC.ExKinoRay.mkv
Format : Matroska
Format version : Version 4 / Version 2
File size : 2.17 GiB
Duration : 2h 4mn
Overall bit rate : 2 494 Kbps
Movie name : Into the Woods 2014 from ExKinoRay
Encoded date : UTC 2015-04-06 21:25:48
Writing application : mkvmerge v6.6.0 ('The Edge Of The In Between') built on Dec 1 2013 17:55:00
Writing library : libebml v1.3.0 + libmatroska v1.4.1

Video
ID : 1
Format : AVC
Format/Info : Advanced Video Codec
Format profile : High@L4.1
Format settings, CABAC : Yes
Format settings, ReFrames : 10 frames
Codec ID : V_MPEG4/ISO/AVC
Duration : 2h 4mn
Bit rate : 1 726 Kbps
Width : 720 pixels
Height : 302 pixels
Display aspect ratio : 2.40:1
Frame rate mode : Constant
Frame rate : 23.976 fps
Color space : YUV
Chroma subsampling : 4:2:0
Bit depth : 8 bits
Scan type : Progressive
Bits/(Pixel*Frame) : 0.331
Stream size : 1.46 GiB (67%)
Title : Enigma
Writing library : x264 core 133 r2334 a3ac64b
Encoding settings : cabac=1 / ref=10 / deblock=1:-2:-2 / analyse=0x3:0x113 / me=umh / subme=10 / psy=1 / psy_rd=1.05:0.15 / mixed_ref=1 / me_range=32 / chroma_me=1 / trellis=2 / 8x8dct=1 / cqm=0 / deadzone=21,11 / fast_pskip=0 / chroma_qp_offset=-3 / threads=12 / lookahead_threads=2 / sliced_threads=0 / nr=0 / decimate=0 / interlaced=0 / bluray_compat=0 / constrained_intra=0 / bframes=9 / b_pyramid=2 / b_adapt=2 / b_bias=0 / direct=3 / weightb=1 / open_gop=0 / weightp=2 / keyint=240 / keyint_min=23 / scenecut=40 / intra_refresh=0 / rc=2pass / mbtree=0 / bitrate=1726 / ratetol=1.0 / qcomp=0.60 / qpmin=0 / qpmax=51 / qpstep=4 / cplxblur=20.0 / qblur=0.5 / ip_ratio=1.40 / pb_ratio=1.30 / aq=1:1.00
Default : Yes
Forced : No
Color primaries : BT.709
Transfer characteristics : BT.709
Matrix coefficients : BT.709

Audio #1
ID : 2
Format : AC-3
Format/Info : Audio Coding 3
Mode extension : CM (complete main)
Format settings, Endianness : Big
Codec ID : A_AC3
Duration : 2h 4mn
Bit rate mode : Constant
Bit rate : 384 Kbps
Channel(s) : 6 channels
Channel positions : Front: L C R, Side: L R, LFE
Sampling rate : 48.0 KHz
Bit depth : 16 bits
Compression mode : Lossy
Stream size : 343 MiB (15%)
Title : DUB (iTunes)
Language : Russian
Default : Yes
Forced : No

Audio #2
ID : 3
Format : AC-3
Format/Info : Audio Coding 3
Mode extension : CM (complete main)
Format settings, Endianness : Big
Codec ID : A_AC3
Duration : 2h 4mn
Bit rate mode : Constant
Bit rate : 384 Kbps
Channel(s) : 6 channels
Channel positions : Front: L C R, Side: L R, LFE
Sampling rate : 48.0 KHz
Bit depth : 16 bits
Compression mode : Lossy
Stream size : 343 MiB (15%)
Language : English
Default : No
Forced : No

Text #1
ID : 4
Format : UTF-8
Codec ID : S_TEXT/UTF8
Codec ID/Info : UTF-8 Plain Text
Title : Forc
Language : Russian
Default : Yes
Forced : No

Text #2
ID : 5
Format : UTF-8
Codec ID : S_TEXT/UTF8
Codec ID/Info : UTF-8 Plain Text
Language : Russian
Default : No
Forced : No

Text #3
ID : 6
Format : UTF-8
Codec ID : S_TEXT/UTF8
Codec ID/Info : UTF-8 Plain Text
Language : English
Default : No
Forced : No

Text #4
ID : 7
Format : UTF-8
Codec ID : S_TEXT/UTF8
Codec ID/Info : UTF-8 Plain Text
Title : SDH
Language : English
Default : No
Forced : No

Menu
00:00:00.000 : en:00:00:00.000
00:16:24.275 : en:00:16:24.275
00:18:02.164 : en:00:18:02.164
00:21:30.998 : en:00:21:30.998
00:26:37.846 : en:00:26:37.846
00:28:28.415 : en:00:28:28.415
00:30:08.765 : en:00:30:08.765
00:32:50.969 : en:00:32:50.969
00:33:31.885 : en:00:33:31.885
00:37:18.027 : en:00:37:18.027
00:40:44.984 : en:00:40:44.984
00:42:27.128 : en:00:42:27.128
00:46:13.604 : en:00:46:13.604
00:48:53.180 : en:00:48:53.180
00:54:39.109 : en:00:54:39.109
00:57:50.926 : en:00:57:50.926
01:00:02.808 : en:01:00:02.808
01:03:33.977 : en:01:03:33.977
01:08:32.859 : en:01:08:32.859
01:10:14.335 : en:01:10:14.335
01:14:47.525 : en:01:14:47.525
01:21:45.567 : en:01:21:45.567
01:24:00.827 : en:01:24:00.827
01:29:15.267 : en:01:29:15.267
01:33:29.437 : en:01:33:29.437
01:36:32.996 : en:01:36:32.996
01:40:53.422 : en:01:40:53.422
01:43:59.150 : en:01:43:59.150
01:45:49.885 : en:01:45:49.885
01:49:38.947 : en:01:49:38.947
01:53:44.985 : en:01:53:44.985
01:57:23.828 : en:01:57:23.828




реклама партнёра


Вернуться к началу
 Профиль  
 
   Похожие торренты   Автор   Торрент   Размер 
В этой теме нет новых непрочитанных сообщений. Чем дальше в лес... / Into the Woods (Роб Маршалл) [Фэнтези, комедия, семейный, мюзикл, 2014] HDRip, Dub [iTunes]

Dracon

335 | 11

1.37 ГБ

В этой теме нет новых непрочитанных сообщений. Чем дальше в лес... / Into the Woods (Роб Маршалл) [Фэнтези, комедия, семейный, мюзикл, 2014] BDRip 1080p, Dub+Sub [iTunes]

Dracon

265 | 7

12.44 ГБ

В этой теме нет новых непрочитанных сообщений. Чем дальше в лес... / Into the Woods (Роб Маршалл) [Фэнтези, комедия, семейный, мюзикл, 2014] BDRip 720p, Dub+Sub [iTunes]

Dracon

155 | 6

6.39 ГБ

В этой теме нет новых непрочитанных сообщений. Чем дальше в лес / Into the Woods (Роб Маршалл) [2014, мюзикл, фэнтези, комедия, семейный, HDRip] Dub чистый звук

Nickolas3435

66 | 3

2.05 ГБ

В этой теме нет новых непрочитанных сообщений. Чем дальше в лес / Into the Woods (Роб Маршалл) [2014, мюзикл, фэнтези, комедия, семейный, HDRip] Dub чистый звук

Nickolas3435

1432 | 55

1.46 ГБ

В этой теме нет новых непрочитанных сообщений. Чем дальше в лес / Into the Woods (Роб Маршалл) [Мюзикл, фэнтези, комедия, семейный, 2014] DVDScr, avo+sub

Dracon

512 | 80

1.88 ГБ

В этой теме нет новых непрочитанных сообщений. Чем дальше в лес / Into the Woods (Роб Маршалл) [Фэнтези, комедия, семейный, мюзикл, 2014] BDRip 720p, dub+sub [Чистый звук]

Dracon

732 | 28

6.39 ГБ


Начать новую тему Ответить на тему  [ 1 сообщение ] 




Для Мосгорсуда, Роскомнадзора и рекламодателей:: mosgorsud-torrent[собачка]yandex.ru