Торрент файл
скачать торрент магнет ссылка Добавлен: 06 апр 2015, 11:21
Размер: 1.86 ГБ
Сидеров: 1314
Личеров: 36
Автор

СообщениеДобавлено: 06 апр 2015, 11:21 

Не в сети
Зам. Админа
Аватара пользователя
Дата регистрации:
02 дек 2010, 12:39
Спасибо: 12623 / 214
Сообщения: 28012
Год выпуска: 2014
Жанр: Фэнтези, приключения
Выпущено: Великобритания, США, Канада, Китай, Legendary Pictures, Moving Picture Company, Outlaw Sinema
Режиссер: Сергей Бодров ст.
В ролях: Бен Барнс, Джефф Бриджес, Джулианна Мур, Алисия Викандер, Антье Трауэ, Оливия Уильямс, Джон ДеСантис, Кит Харингтон, Джимон Хонсу, Джерард Планкет, Джейсон Скотт Ли, Кэндис МакКлюр, Люк Родерик, Заф Пару, Тимоти Уэббер, Лайла Фицджералд, Марсель Жани, Либби Ослер, Примо Аллон, Тая Клайн
О фильме: Рассказ в фильме пойдет про парня, который, так уж вышло, стал седьмым сыном седьмого сына. А только такой человек может стать ведьмаком. Но этого недостаточно, чтобы именовать себя так — необходимо пройти массу тренировок, а также усердно учиться. Ведь главное оружие ведьмака — это его ум. Хоть в народе их не любят, но кто-то же обязан убивать нечисть, хранить землю от сил зла и делать всю грязную работу? Юный Том Уорд попробует стать тем самым учеником ведьмака.

Качество: WEB-DLRip (AVC)
Видео: MPEG-4 AVC, 2222 Кбит/с, 1024x426, 23.976 кадр/с
Аудио: Русский (АС3, 6 ch, 384 Кбит/с)
Размер: 1.86 ГБ
Продолжительность: 01:42:01
Перевод: Дублированный
Сохранены оригинальные чаптеры как на исходном WEB-DL.
x264 [info]: frame I:1269 Avg QP:13.71 size: 76790
x264 [info]: frame P:39533 Avg QP:17.43 size: 23290
x264 [info]: frame B:105958 Avg QP:20.62 size: 6436
x264 [info]: consecutive B-frames: 2.8% 6.2% 7.2% 64.9% 6.7% 10.2% 1.1% 0.6% 0.2% 0.2%
x264 [info]: mb I I16..4: 6.9% 63.7% 29.4%
x264 [info]: mb P I16..4: 1.3% 12.9% 1.8% P16..4: 29.8% 34.1% 11.7% 5.1% 0.7% skip: 2.5%
x264 [info]: mb B I16..4: 0.2% 2.2% 0.3% B16..8: 34.0% 19.9% 3.1% direct: 5.1% skip:35.1% L0:38.7% L1:45.6% BI:15.7%
x264 [info]: 8x8 transform intra:79.2% inter:49.3%
x264 [info]: direct mvs spatial:95.5% temporal:4.5%
x264 [info]: coded y,uvDC,uvAC intra: 88.6% 84.1% 59.5% inter: 23.9% 18.3% 8.6%
x264 [info]: i16 v,h,dc,p: 40% 10% 9% 41%
x264 [info]: i8 v,h,dc,ddl,ddr,vr,hd,vl,hu: 10% 9% 6% 9% 12% 12% 13% 13% 16%
x264 [info]: i4 v,h,dc,ddl,ddr,vr,hd,vl,hu: 11% 10% 7% 8% 14% 13% 13% 11% 14%
x264 [info]: i8c dc,h,v,p: 42% 24% 18% 17%
x264 [info]: Weighted P-Frames: Y:4.3% UV:2.4%
x264 [info]: ref P L0: 54.1% 10.1% 15.9% 6.1% 4.8% 3.4% 2.6% 1.4% 1.4% 0.2% 0.0%
x264 [info]: ref B L0: 80.9% 8.7% 3.8% 2.2% 1.6% 2.0% 0.6% 0.2%
x264 [info]: ref B L1: 95.4% 4.6%
x264 [info]: kb/s:2221.96
Общее
Уникальный идентификатор : 229272977839319280678361401917544381956 (0xAC7C5E8D74E8DCB29A1988001D38BE04)
Полное имя : D:ЗагрузкиSeventh.Son.2014.x264.WEB-DLRip.(AVC).ExKinoRay.mkv
Формат : Matroska
Версия формата : Version 2
Размер файла : 1,86 Гбайт
Продолжительность : 1 ч. 42 м.
Общий поток : 2608 Кбит/сек
Название фильма : Седьмой сын.2014.Rip by: ollan
Дата кодирования : UTC 2015-04-06 06:27:05
Программа кодирования : mkvmerge v5.6.0 ('Kenya Kane') built on May 27 2012 16:44:04
Библиотека кодирования : libebml v1.2.3 + libmatroska v1.3.0

Видео
Идентификатор : 1
Формат : AVC
Формат/Информация : Advanced Video Codec
Профиль формата : High@L4.1
Параметр CABAC формата : Да
Параметр ReFrames формата : 9 кадров
Идентификатор кодека : V_MPEG4/ISO/AVC
Продолжительность : 1 ч. 42 м.
Битрейт : 2222 Кбит/сек
Ширина : 1024 пикселя
Высота : 426 пикселей
Соотношение сторон : 2,40:1
Режим частоты кадров : Постоянный
Частота кадров : 23,976 кадра/сек
Цветовое пространство : YUV
Субдискретизация насыщенности : 4:2:0
Битовая глубина : 8 бит
Тип развёртки : Прогрессивная
Бит/(Пиксели*Кадры) : 0.212
Размер потока : 1,55 Гбайт (83%)
Библиотека кодирования : x264 core 125 r2200 999b753
Настройки программы : cabac=1 / ref=9 / deblock=1:-3:-3 / analyse=0x3:0x133 / me=umh / subme=11 / psy=1 / psy_rd=1.00:0.10 / mixed_ref=1 / me_range=32 / chroma_me=1 / trellis=2 / 8x8dct=1 / cqm=0 / deadzone=21,11 / fast_pskip=0 / chroma_qp_offset=-3 / threads=12 / lookahead_threads=2 / sliced_threads=0 / nr=0 / decimate=0 / interlaced=0 / bluray_compat=0 / constrained_intra=0 / bframes=9 / b_pyramid=2 / b_adapt=2 / b_bias=0 / direct=3 / weightb=1 / open_gop=0 / weightp=2 / keyint=240 / keyint_min=23 / scenecut=40 / intra_refresh=0 / rc_lookahead=60 / rc=2pass / mbtree=1 / bitrate=2222 / ratetol=1.0 / qcomp=0.60 / qpmin=0 / qpmax=69 / qpstep=4 / cplxblur=20.0 / qblur=0.5 / ip_ratio=1.40 / aq=1:1.00
Язык : English
Default : Да
Forced : Нет

Аудио
Идентификатор : 2
Формат : AC-3
Формат/Информация : Audio Coding 3
Расширение режима : CM (complete main)
Параметр Endianness формата : Big
Идентификатор кодека : A_AC3
Продолжительность : 1 ч. 42 м.
Вид битрейта : Постоянный
Битрейт : 384 Кбит/сек
Каналы : 6 каналов
Расположение каналов : Front: L C R, Side: L R, LFE
Частота : 48,0 КГц
Битовая глубина : 16 бит
Метод сжатия : С потерями
Размер потока : 280 Мбайт (15%)
Заголовок : Дублированный (iTunes Russia)
Язык : Russian
Default : Да
Forced : Нет

Меню
00:00:00.000 : en:Chapter 01
00:04:52.000 : en:Chapter 02
00:10:30.000 : en:Chapter 03
00:16:42.000 : en:Chapter 04
00:22:42.000 : en:Chapter 05
00:27:42.000 : en:Chapter 06
00:30:19.000 : en:Chapter 07
00:36:47.000 : en:Chapter 08
00:42:39.000 : en:Chapter 09
00:49:56.000 : en:Chapter 10
00:54:46.000 : en:Chapter 11
00:57:50.000 : en:Chapter 12
01:02:55.000 : en:Chapter 13
01:06:55.000 : en:Chapter 14
01:11:31.000 : en:Chapter 15
01:18:38.000 : en:Chapter 16
01:22:12.000 : en:Chapter 17
01:25:34.000 : en:Chapter 18
01:30:16.000 : en:Chapter 19
01:33:22.000 : en:Chapter 20










реклама партнёра


Вернуться к началу
 Профиль  
 
   Похожие торренты   Автор   Торрент   Размер 
В этой теме нет новых непрочитанных сообщений. Седьмой сын / Seventh Son (Сергей Бодров) [фэнтези, приключения, 2014] WEB-DL 1080p, Dub [iTunes]

Dracon

118 | 10

3.64 ГБ

В этой теме нет новых непрочитанных сообщений. Седьмой сын / Seventh Son (Сергей Бодров) [фэнтези, приключения, 2014] HDRip, Dub [iTunes]

Dracon

402 | 17

1.46 ГБ

В этой теме нет новых непрочитанных сообщений. Седьмой сын / Seventh Son (Сергей Бодров) [фэнтези, приключения, 2014] BDRip 720p, Dub [iTunes]

Dracon

111 | 39

4.65 ГБ

В этой теме нет новых непрочитанных сообщений. Седьмой сын / Seventh Son (Сергей Бодров) [фэнтези, приключения, 2014] DVD9, Dub+Sub [Лицензия]

Dracon

0 | 1

5.86 ГБ

В этой теме нет новых непрочитанных сообщений. Седьмой сын / Seventh Son (Сергей Бодров) [фэнтези, приключения, 2014] Blu-ray CCE 1080p, Dub+Sub [Лицензия]

Dracon

35 | 8

40.91 ГБ

В этой теме нет новых непрочитанных сообщений. Седьмой сын / Seventh Son (Сергей Бодров) [фэнтези, приключения, 2014] HDRip-AVC, Dub+Sub [Лицензия]

Dracon

667 | 50

2 ГБ

В этой теме нет новых непрочитанных сообщений. Седьмой сын / Seventh Son (Сергей Бодров) [фэнтези, приключения, 2014] HDRip, Dub [Лицензия]

Dracon

394 | 25

2.06 ГБ


Начать новую тему Ответить на тему  [ 1 сообщение ] 




Для Мосгорсуда, Роскомнадзора и рекламодателей:: mosgorsud-torrent[собачка]yandex.ru