Торрент файл
скачать торрент магнет ссылка Добавлен: 04 апр 2015, 15:48
Размер: 1.47 ГБ
Сидеров: 13
Личеров: 4
Статус: (salma3)
Автор

СообщениеДобавлено: 04 апр 2015, 15:48 

Не в сети
Зам. Админа
Аватара пользователя
Дата регистрации:
02 дек 2010, 12:39
Спасибо: 12461 / 214
Сообщения: 27968
Год выхода: 2014
Жанр: триллер
Режиссер: Бэйзел Оуис
В ролях: Скотт Гленн, Стивен Тоболовски, Лидия Хёрст, Джессика Лу, Кристен Хагер, Крис Кой, Оливия Тейлор Дадли, Максимино Арсиньега, Тим Де Зарн, Вэлори Хаббард

О фильме:
В тихом маленьком городке живет обычный, ничем не примечательный старик. У него своя парикмахерская, он добропорядочный гражданин, его уважают и ценят окружающие. Но однажды его тихой и размеренной жизни приходит конец. Молодой человек, представившийся Джоном Лару, убежден, что парикмахер - никто иной, как серийный убийца, убивший 17 молодых женщин, закапывая их заживо.



Качество: WEB-DLRip
Видео: XviD ,~1735 Kb/s, 720x304, 23.976 fps
Аудио 1: русский, AC3, 384 kb/s (6 ch), 48 kHz        
Аудио 2: английский, AC3, 192 kb/s (2 ch), 48 kHz
Продолжительность: 01:30:12
Перевод: Любительский (одноголосый) [Павел Морозов aka PashaUp]
General
Complete name                            : E:с торрентовThe.Barber.2014.L1.WEB-DLRip.1400MB.avi
Format                                   : AVI
Format/Info                              : Audio Video Interleave
File size                                : 1.47 GiB
Duration                                 : 1h 30mn
Overall bit rate                         : 2 325 Kbps
Writing application                      : VirtualDubMod 1.5.10.2 (build 2540/release)
Writing library                          : VirtualDubMod build 2540/release

Video
ID                                       : 0
Format                                   : MPEG-4 Visual
Format profile                           : Advanced Simple@L5
Format settings, BVOP                    : 2
Format settings, QPel                    : No
Format settings, GMC                     : No warppoints
Format settings, Matrix                  : Default (H.263)
Muxing mode                              : Packed bitstream
Codec ID                                 : XVID
Codec ID/Hint                            : XviD
Duration                                 : 1h 30mn
Bit rate                                 : 1 735 Kbps
Width                                    : 720 pixels
Height                                   : 304 pixels
Display aspect ratio                     : 2.35:1
Frame rate                               : 23.976 fps
Color space                              : YUV
Chroma subsampling                       : 4:2:0
Bit depth                                : 8 bits
Scan type                                : Progressive
Compression mode                         : Lossy
Bits/(Pixel*Frame)                       : 0.331
Stream size                              : 1.09 GiB (75%)
Writing library                          : XviD 66

Audio #1
ID                                       : 1
Format                                   : AC-3
Format/Info                              : Audio Coding 3
Mode extension                           : CM (complete main)
Format settings, Endianness              : Big
Codec ID                                 : 2000
Duration                                 : 1h 30mn
Bit rate mode                            : Constant
Bit rate                                 : 384 Kbps
Channel(s)                               : 6 channels
Channel positions                        : Front: L C R, Side: L R, LFE
Sampling rate                            : 48.0 KHz
Bit depth                                : 16 bits
Compression mode                         : Lossy
Stream size                              : 248 MiB (17%)
Alignment                                : Split accross interleaves
Interleave, duration                     : 42 ms (1.00 video frame)
Interleave, preload duration             : 500 ms

Audio #2
ID                                       : 2
Format                                   : AC-3
Format/Info                              : Audio Coding 3
Mode extension                           : CM (complete main)
Format settings, Endianness              : Big
Codec ID                                 : 2000
Duration                                 : 1h 30mn
Bit rate mode                            : Constant
Bit rate                                 : 192 Kbps
Channel(s)                               : 2 channels
Channel positions                        : Front: L R
Sampling rate                            : 48.0 KHz
Bit depth                                : 16 bits
Compression mode                         : Lossy
Stream size                              : 124 MiB (8%)
Alignment                                : Split accross interleaves
Interleave, duration                     : 42 ms (1.00 video frame)
Interleave, preload duration             : 500 ms









реклама партнёра


Вернуться к началу
 Профиль  
 
   Похожие торренты   Автор   Торрент   Размер 
В этой теме нет новых непрочитанных сообщений. Цирюльник / The Barber (Бэйзел Оуис) [триллер, 2014] WEB-DLRip 720p, avo

Dracon

6 | 4

3.01 ГБ

В этой теме нет новых непрочитанных сообщений. Гостиная / The Keeping Room (Дэниэл Барбер / Daniel Barber) [2014г., драма, HDTV Rip 720] Sub

Alfredovich

1 | 0

1.41 ГБ

В этой теме нет новых непрочитанных сообщений. Честь / Honour [триллер, 2014] WEB-DLRip, Avo

salma3

196 | 7

1.46 ГБ

В этой теме нет новых непрочитанных сообщений. Я здесь / I Am Here [триллер, драма, 2014] WEB-DLRip, Avo

salma3

1192 | 92

1.38 ГБ

В этой теме нет новых непрочитанных сообщений. Призвание / The Calling [триллер, 2014] WEB-DLRip, avo

Dracon

432 | 9

1.45 ГБ

В этой теме нет новых непрочитанных сообщений. Исправление / Reclaim [триллер, 2014] WEB-DLRip, dvo

Dracon

405 | 13

1.37 ГБ

В этой теме нет новых непрочитанных сообщений. Тележка / Cart (Чи-юнг Бу) [Триллер, драма, 2014] WEB-DLRip, dvo

Dracon

3 | 98

748.41 МБ


Начать новую тему Ответить на тему  [ 1 сообщение ] 




Для Мосгорсуда, Роскомнадзора и рекламодателей:: mosgorsud-torrent[собачка]yandex.ru