Торрент файл
скачать торрент магнет ссылка Добавлен: 31 мар 2015, 10:49
Размер: 1.99 ГБ
Сидеров: 1082
Личеров: 15
Статус: (salma3)
Автор

СообщениеДобавлено: 31 мар 2015, 10:49 

Не в сети
Зам. Админа
Аватара пользователя
Дата регистрации:
02 дек 2010, 12:39
Спасибо: 12461 / 214
Сообщения: 27968
Год выхода: 2014
Жанр: триллер, драма, криминал
Режиссер: Руперт Уайатт
В ролях: Марк Уолберг, Джон Гудман, Бри Ларсон, Майкл Кеннет Уильямс, Джессика Лэнг, Гриффин Кливлэнд, Омар Лейва, Энтони Келли, Стив Парк, Эмори Коэн


О фильме: Джим Беннетт — рисковый парень. Днем он — гениальный писатель и отличный преподаватель, ночью — заядлый игрок. Он глубоко увяз в мире, где закон — пустой звук, и однажды ставит на кон все, включая собственную жизнь. Те, кому он должен, опасны, а помочь ему может только тот, кто еще опаснее. Достоин ли второго шанса человек, проигравший самого себя? А, если да, то — во сколько это ему обойдется?


Выпущено: США / Paramount Pictures, Winkler Films
Продолжительность: 01:50:58
Озвучивание: Дублированное [лицензия]

Качество: HDRip (AVC)
Видео: MPEG-4 AVC, 1675 Кбит/с, 1024x426
Аудио: Русский, английский (AC3, 6 ch, 448 Кбит/с)
Субтитры: Английские

General
Unique ID : 182830736115502298213552070478913643757 (0x898BEB3FE8A6268E8D695B964D14A4ED)
Complete name : C:The.Gambler.2014.D.HDRip.AVC.ExKinoRay.mkv
Format : Matroska
Format version : Version 4 / Version 2
File size : 1.99 GiB
Duration : 1h 50mn
Overall bit rate : 2 573 Kbps
Movie name : The Gambler 2014 from ExKinoRay
Encoded date : UTC 2015-03-31 01:36:30
Writing application : mkvmerge v6.6.0 ('The Edge Of The In Between') built on Dec 1 2013 17:55:00
Writing library : libebml v1.3.0 + libmatroska v1.4.1

Video
ID : 1
Format : AVC
Format/Info : Advanced Video Codec
Format profile : High@L4.1
Format settings, CABAC : Yes
Format settings, ReFrames : 10 frames
Codec ID : V_MPEG4/ISO/AVC
Duration : 1h 50mn
Bit rate : 1 675 Kbps
Width : 1 024 pixels
Height : 426 pixels
Display aspect ratio : 2.40:1
Frame rate mode : Constant
Frame rate : 23.976 fps
Color space : YUV
Chroma subsampling : 4:2:0
Bit depth : 8 bits
Scan type : Progressive
Bits/(Pixel*Frame) : 0.160
Stream size : 1.26 GiB (63%)
Title : Enigma-Vladislav71
Writing library : x264 core 133 r2334 a3ac64b
Encoding settings : cabac=1 / ref=10 / deblock=1:-2:-2 / analyse=0x3:0x113 / me=umh / subme=10 / psy=1 / psy_rd=1.05:0.10 / mixed_ref=1 / me_range=32 / chroma_me=1 / trellis=2 / 8x8dct=1 / cqm=0 / deadzone=21,11 / fast_pskip=0 / chroma_qp_offset=-3 / threads=12 / lookahead_threads=2 / sliced_threads=0 / nr=0 / decimate=0 / interlaced=0 / bluray_compat=0 / constrained_intra=0 / bframes=9 / b_pyramid=2 / b_adapt=2 / b_bias=0 / direct=3 / weightb=1 / open_gop=0 / weightp=2 / keyint=240 / keyint_min=23 / scenecut=40 / intra_refresh=0 / rc=2pass / mbtree=0 / bitrate=1675 / ratetol=1.0 / qcomp=0.60 / qpmin=0 / qpmax=51 / qpstep=4 / cplxblur=20.0 / qblur=0.5 / ip_ratio=1.40 / pb_ratio=1.30 / aq=1:1.00
Language : English
Default : Yes
Forced : No
Color primaries : BT.709
Transfer characteristics : BT.709
Matrix coefficients : BT.709

Audio #1
ID : 2
Format : AC-3
Format/Info : Audio Coding 3
Mode extension : CM (complete main)
Format settings, Endianness : Big
Codec ID : A_AC3
Duration : 1h 50mn
Bit rate mode : Constant
Bit rate : 448 Kbps
Channel(s) : 6 channels
Channel positions : Front: L C R, Side: L R, LFE
Sampling rate : 48.0 KHz
Bit depth : 16 bits
Compression mode : Lossy
Stream size : 356 MiB (17%)
Title : DUB
Language : Russian
Default : Yes
Forced : No

Audio #2
ID : 3
Format : AC-3
Format/Info : Audio Coding 3
Mode extension : CM (complete main)
Format settings, Endianness : Big
Codec ID : A_AC3
Duration : 1h 50mn
Bit rate mode : Constant
Bit rate : 448 Kbps
Channel(s) : 6 channels
Channel positions : Front: L C R, Side: L R, LFE
Sampling rate : 48.0 KHz
Bit depth : 16 bits
Compression mode : Lossy
Stream size : 356 MiB (17%)
Language : English
Default : No
Forced : No

Text
ID : 4
Format : UTF-8
Codec ID : S_TEXT/UTF8
Codec ID/Info : UTF-8 Plain Text
Language : English
Default : No
Forced : No

Menu
00:00:00.000 : en:00:00:00.000
00:08:21.376 : en:00:08:21.376
00:16:46.422 : en:00:16:46.422
00:25:22.020 : en:00:25:22.020
00:29:16.254 : en:00:29:16.254
00:34:09.422 : en:00:34:09.422
00:45:08.456 : en:00:45:08.456
00:51:00.516 : en:00:51:00.516
00:59:08.336 : en:00:59:08.336
01:06:22.729 : en:01:06:22.729
01:12:39.230 : en:01:12:39.230
01:21:58.664 : en:01:21:58.664
01:24:17.094 : en:01:24:17.094
01:31:11.758 : en:01:31:11.758
01:35:35.563 : en:01:35:35.563
01:46:04.441 : en:01:46:04.441









реклама партнёра


Вернуться к началу
 Профиль  
 
   Похожие торренты   Автор   Торрент   Размер 
В этой теме нет новых непрочитанных сообщений. Игрок / The Gambler (Руперт Уайатт) [Триллер, Драма, Криминал, 2014] HDRip, Dub [Лицензия]

Dracon

6812 | 175

1.37 ГБ

В этой теме нет новых непрочитанных сообщений. Игрок / The Gambler (Руперт Уайатт) [Триллер, Драма, Криминал, 2014] Blu-Ray 1080p, Dub+Sub [Лицензия]

Dracon

0 | 5

41.86 ГБ

В этой теме нет новых непрочитанных сообщений. Игрок / The Gambler (Руперт Уайатт) [Триллер, Драма, Криминал, 2014] BDRip 720p, Dub [Лицензия]

Dracon

53 | 3

5.81 ГБ

В этой теме нет новых непрочитанных сообщений. Игрок / The Gambler (Руперт Уайатт) [Триллер, Драма, Криминал, 2014] BDRip 1080p, Dub [Лицензия]

Dracon

1120 | 32

8.29 ГБ

В этой теме нет новых непрочитанных сообщений. Игрок / The Gambler (Руперт Уайатт) [Триллер, Драма, Криминал, 2014] Blu-Ray Remux 1080p, Dub+Sub [Лицензия]

Dracon

84 | 15

25.68 ГБ

В этой теме нет новых непрочитанных сообщений. Игрок / The Gambler (Руперт Уайатт) [Триллер, Драма, Криминал, 2014] DVDScr, dvo

Dracon

56 | 5

2.04 ГБ

В этой теме нет новых непрочитанных сообщений. Игрок / The Gambler (Руперт Уайатт) [Триллер, Драма, Криминал, 2014] DVDScr, dvo

Dracon

53 | 3

1.37 ГБ


Начать новую тему Ответить на тему  [ 1 сообщение ] 




Для Мосгорсуда, Роскомнадзора и рекламодателей:: mosgorsud-torrent[собачка]yandex.ru