Торрент файл
скачать торрент магнет ссылка Добавлен: 31 мар 2015, 00:35
Размер: 2.67 ГБ
Сидеров: 121
Личеров: 10
Автор

СообщениеДобавлено: 31 мар 2015, 00:35 

Не в сети
Супермодератор
Аватара пользователя
Дата регистрации:
15 фев 2012, 16:44
Возраст: 27
Спасибо: 5143 / 2090
Сообщения: 17478
Год выпуска: 2015
Жанр: боевик, ужасы
Режиссер: Рене Перез

В ролях: Дэнни Трехо, Николь Камминс, Джулия Леман, Дженни Лин, Роберт Амстлер, Джейсон Анкона

О фильме:
Шериф должен спасти семейство, попавшее в западню из-за начавшегося извержения вулкана. Однако ему предстоит бороться не только с силами природы, но и с вырвавшимися из огненной бездны наполненными огненной лавой мертвецами.



Выпущено: США / Ancona Films, Millman Productions
Продолжительность: 01:22:21
Озвучивание: Любительское (одноголосное) [МЕГАПЫХАРЬ]

Файл
Формат: MKV
Качество: WEB-DL 720p
Видео: 3972 kb/s, 1280x720
Аудио: Russian: AC3, 192 kb/s (2 ch) / English: AC3, 384 kb/s (6 ch)
Субтитры: English

Format : Matroska
Format version : Version 4 / Version 2
File size : 2.67 GiB
Duration : 1h 22mn
Overall bit rate : 4 640 Kbps
Encoded date : UTC 2015-03-29 19:40:10
Writing application : mkvmerge v6.1.0 ('Old Devil') built on Mar 4 2013 09:10:42
Writing library : libebml v1.3.0 + libmatroska v1.4.0

Video
ID : 1
Format : AVC
Format/Info : Advanced Video Codec
Format profile : High@L3.1
Format settings, CABAC : No
Format settings, ReFrames : 2 frames
Codec ID : V_MPEG4/ISO/AVC
Duration : 1h 22mn
Bit rate : 3 972 Kbps
Width : 1 280 pixels
Height : 720 pixels
Display aspect ratio : 16:9
Frame rate : 23.976 fps
Color space : YUV
Chroma subsampling : 4:2:0
Bit depth : 8 bits
Scan type : Progressive
Bits/(Pixel*Frame) : 0.180
Stream size : 2.28 GiB (86%)
Language : English
Default : Yes
Forced : No
Color primaries : BT.709-5, BT.1361, IEC 61966-2-4, SMPTE RP177
Transfer characteristics : BT.709-5, BT.1361
Matrix coefficients : BT.709-5, BT.1361, IEC 61966-2-4 709, SMPTE RP177

Audio #1
ID : 2
Format : AC-3
Format/Info : Audio Coding 3
Mode extension : CM (complete main)
Format settings, Endianness : Big
Codec ID : A_AC3
Duration : 1h 22mn
Bit rate mode : Constant
Bit rate : 192 Kbps
Channel(s) : 2 channels
Channel positions : Front: L R
Sampling rate : 48.0 KHz
Bit depth : 16 bits
Compression mode : Lossy
Stream size : 113 MiB (4%)
Language : Russian
Default : Yes
Forced : No

Audio #2
ID : 3
Format : AC-3
Format/Info : Audio Coding 3
Mode extension : CM (complete main)
Format settings, Endianness : Big
Codec ID : A_AC3
Duration : 1h 22mn
Bit rate mode : Constant
Bit rate : 384 Kbps
Channel(s) : 6 channels
Channel positions : Front: L C R, Side: L R, LFE
Sampling rate : 48.0 KHz
Bit depth : 16 bits
Compression mode : Lossy
Stream size : 226 MiB (8%)
Language : English
Default : No
Forced : No

Text
ID : 4
Format : UTF-8
Codec ID : S_TEXT/UTF8
Codec ID/Info : UTF-8 Plain Text
Language : English
Default : No
Forced : No

Menu
00:00:00.000 : en:1
00:09:14.000 : en:2
00:17:27.000 : en:3
00:26:29.000 : en:4
00:36:37.000 : en:5
00:44:12.000 : en:6
00:53:51.000 : en:7
01:01:53.000 : en:8
01:09:16.000 : en:9
01:18:48.000 : en:10




_________________



реклама партнёра


Вернуться к началу
 Профиль Отправить личное сообщение  
 
   Похожие торренты   Автор   Торрент   Размер 
В этой теме нет новых непрочитанных сообщений. Пылающие мертвецы / The Burning Dead [боевик, ужасы, 2015] BDRip 720p, Mvo

salma3

137 | 65

3.38 ГБ

В этой теме нет новых непрочитанных сообщений. Пылающие мертвецы / The Burning Dead [боевик, ужасы, 2015] HDRip, Mvo

salma3

335 | 27

1.37 ГБ

В этой теме нет новых непрочитанных сообщений. Пылающие мертвецы / The Burning Dead (Рене Перез) [боевик, ужасы, 2015] HDRip, avo

Dracon

28 | 3

1.45 ГБ

В этой теме нет новых непрочитанных сообщений. Восставшие мертвецы / Dead Rising (Боевик, ужасы, триллер, 2015) BDRip 720p от k.e.n | P, L2

marya111

0 | 0

4.02 ГБ

В этой теме нет новых непрочитанных сообщений. Восставшие мертвецы / Dead Rising: Watchtower (Зак Липовски) [Боевик, Ужасы, Триллер, 2015] BDRip 720p, Mvo [Официальный]

Dracon

6 | 1

4.16 ГБ

В этой теме нет новых непрочитанных сообщений. Восставшие мертвецы / Dead Rising: Watchtower (Зак Липовски) [Боевик, Ужасы, Триллер, 2015] HDRip, Mvo [Официальный]

Dracon

12 | 1

2.05 ГБ

В этой теме нет новых непрочитанных сообщений. Восставшие мертвецы / Dead Rising: Watchtower (Зак Липовски) [Боевик, Ужасы, Триллер, 2015] HDRip, Mvo [официальное]

Dracon

2675 | 90

1.46 ГБ


Начать новую тему Ответить на тему  [ 1 сообщение ] 




Для Мосгорсуда, Роскомнадзора и рекламодателей:: mosgorsud-torrent[собачка]yandex.ru