Торрент файл
скачать торрент магнет ссылка Добавлен: 30 мар 2015, 13:37
Размер: 2.77 ГБ
Сидеров: 10
Личеров: 3
Статус: (salma3)
Автор

СообщениеДобавлено: 30 мар 2015, 13:37 

Не в сети
Супермодератор
Аватара пользователя
Дата регистрации:
15 фев 2012, 16:44
Возраст: 27
Спасибо: 5135 / 2089
Сообщения: 17406
Год выхода: 1996
Жанр: Фантастика, боевик
Режиссер: Дэвид Хоган

В ролях: Памела Андерсон, Темуэра Моррисон, Виктория Роуэлл, Джек Ноузуорти, Ксандер Беркли, Удо Кир, Андре Рози Браун, Клинт Ховард, Дженнифер Банко, Стив Рейлсбэк

О фильме:
Америка охвачена второй гражданской войной. Единственным нейтральным городом остается Стил Харбор. А самое популярное место в Стил Харборе — гриль-бар «Дубовая голова». Имя его владелицы, красавицы по кличке «колючая проволока» окружено легендами. Когда эмоции в ее баре перехлестывают через край, она лично исполняет обязанности вышибалы, а вот справиться с ней не удавалось еще никому. Единственный человек о котором она заботилась — ее слепой младший брат Чарли. Но вот в городе появляется Аксель Худ. Он должен переправить в Канаду доктора Тайру Армстронг, чтобы предупредить Комиссию по перемирию о страшном биологическом оружии, которое может повлечь за собой глобальную катастрофу. Акселю нужна помощь, и он знает, что оказать ее может лишь «Колючая проволока»…



Страна: США
Студия: Polygram Filmed Entertainment, Propaganda Films, Dark Horse Entertainment
Продолжительность: 01:38:20
Перевод: Профессиональный многоголосый, авторский

Файл
Кодек: h.264
Качество: BDRip-AVC
Видео: 2876 Кбит/с, 1024x552, 23.976 кадр/с

Звук:
• №1: Русский (АС3, 6 ch, 384 Кбит/с) Профессиональный многоголосый [R5]
• №2: Русский (АС3, 6 ch, 384 Кбит/с) Авторский одноголосый [Леонид Володарский]
• №3: Английский (АС3, 6 ch, 384 Кбит/с)

Субтитры: Английские

---------------------------------------------------------------------------
x264 [info]: frame I:1373 Avg QP:15.51 size:112540
x264 [info]: frame P:33675 Avg QP:18.85 size: 32166
x264 [info]: frame B:106423 Avg QP:21.53 size: 8289
---------------------------------------------------------------------------

Полное имя : Ne.nazivaj.menya.malishkoj.1996.x264.BDRip.(AVC).0ptimus.mkv
Формат : Matroska
Версия формата : Version 2
Размер файла : 2,77 Гбайт
Продолжительность : 1 ч. 38 м.
Общий поток : 4028 Кбит/сек
Название фильма : Не называй меня малышкой / Barb Wire [1996] -=BDRip (AVC) by 0ptimus=-
Дата кодирования : UTC 2012-12-31 07:22:22
Программа кодирования : mkvmerge v5.8.0 ('No Sleep / Pillow') built on Sep 2 2012 15:37:04
Библиотека кодирования : libebml v1.2.3 + libmatroska v1.3.0

Видео
Идентификатор : 1
Формат : AVC
Формат/Информация : Advanced Video Codec
Профиль формата : High@L4.1
Параметр CABAC формата : Да
Параметр ReFrames формата : 9 кадров
Идентификатор кодека : V_MPEG4/ISO/AVC
Продолжительность : 1 ч. 38 м.
Битрейт : 2876 Кбит/сек
Ширина : 1024 пикселя
Высота : 552 пикселя
Соотношение сторон : 1,85:1
Режим частоты кадров : Постоянный
Частота кадров : 23,976 кадра/сек
Цветовое пространство : YUV
Субдискретизация насыщенности : 4:2:0
Битовая глубина : 8 бит
Тип развёртки : Прогрессивная
Бит/(Пиксели*Кадры) : 0.212
Размер потока : 1,92 Гбайт (69%)
Заголовок : Rip by 0ptimus
Библиотека кодирования : x264 core 129 r2230 1cffe9f
Настройки программы : cabac=1 / ref=9 / deblock=1:-3:-3 / analyse=0x3:0x113 / me=umh / subme=11 / psy=1 / psy_rd=1.00:0.20 / mixed_ref=1 / me_range=32 / chroma_me=1 / trellis=2 / 8x8dct=1 / cqm=0 / deadzone=21,11 / fast_pskip=0 / chroma_qp_offset=-3 / threads=4 / lookahead_threads=1 / sliced_threads=0 / nr=0 / decimate=0 / interlaced=0 / bluray_compat=0 / constrained_intra=0 / bframes=11 / b_pyramid=2 / b_adapt=2 / b_bias=0 / direct=3 / weightb=1 / open_gop=0 / weightp=2 / keyint=240 / keyint_min=23 / scenecut=40 / intra_refresh=0 / rc_lookahead=40 / rc=2pass / mbtree=0 / bitrate=2876 / ratetol=1.0 / qcomp=0.60 / qpmin=0 / qpmax=69 / qpstep=4 / cplxblur=20.0 / qblur=0.5 / vbv_maxrate=50000 / vbv_bufsize=50000 / nal_hrd=none / ip_ratio=1.40 / pb_ratio=1.30 / aq=1:1.00
Язык : English
Default : Да
Forced : Да

Аудио #1
Идентификатор : 2
Формат : AC-3
Формат/Информация : Audio Coding 3
Расширение режима : CM (complete main)
Параметр Endianness формата : Big
Идентификатор кодека : A_AC3
Продолжительность : 1 ч. 38 м.
Вид битрейта : Постоянный
Битрейт : 384 Кбит/сек
Каналы : 6 каналов
Расположение каналов : Front: L C R, Side: L R, LFE
Частота : 48,0 КГц
Битовая глубина : 16 бит
Метод сжатия : С потерями
Размер потока : 270 Мбайт (10%)
Заголовок : Многоголосый
Язык : Russian
Default : Да
Forced : Да

Аудио #2
Идентификатор : 3
Формат : AC-3
Формат/Информация : Audio Coding 3
Расширение режима : CM (complete main)
Параметр Endianness формата : Big
Идентификатор кодека : A_AC3
Продолжительность : 1 ч. 38 м.
Вид битрейта : Постоянный
Битрейт : 384 Кбит/сек
Каналы : 6 каналов
Расположение каналов : Front: L C R, Side: L R, LFE
Частота : 48,0 КГц
Битовая глубина : 16 бит
Метод сжатия : С потерями
Размер потока : 270 Мбайт (10%)
Заголовок : Авторский [Леонид Володарский]
Язык : Russian
Default : Нет
Forced : Нет

Аудио #3
Идентификатор : 4
Формат : AC-3
Формат/Информация : Audio Coding 3
Расширение режима : CM (complete main)
Параметр Endianness формата : Big
Идентификатор кодека : A_AC3
Продолжительность : 1 ч. 38 м.
Вид битрейта : Постоянный
Битрейт : 384 Кбит/сек
Каналы : 6 каналов
Расположение каналов : Front: L C R, Side: L R, LFE
Частота : 48,0 КГц
Битовая глубина : 16 бит
Метод сжатия : С потерями
Размер потока : 270 Мбайт (10%)
Язык : English
Default : Нет
Forced : Нет

Текст
Идентификатор : 5
Формат : UTF-8
Идентификатор кодека : S_TEXT/UTF8
Идентификатор кодека/Информация : UTF-8 Plain Text
Язык : English
Default : Нет
Forced : Нет

Меню
00:00:00.000 : :Opening Credits
00:03:55.026 : :Barb Wire to the Rescue
00:08:11.700 : :Welcome to Steel Harbor
00:18:12.425 : :Night on the Town
00:27:56.758 : :Hammerhead Bar & Grille
00:34:07.337 : :Axel's Only Hope
00:44:15.945 : :The Resistance
00:48:44.380 : :Let's Make a Deal
00:53:31.667 : :Warrant for Barb's Arrest
00:55:33.539 : :Police Raid
01:04:49.844 : :Barb's Biggest Mistake
01:12:59.500 : :The Exchange
01:19:29.765 : :Barb Wire's Revenge
01:23:56.990 : :The Last Crusade
01:30:13.199 : :Escape From Steel Harbor
01:33:02.327 : :Closing Credits


Релиз от:


_________________



реклама партнёра


Вернуться к началу
 Профиль Отправить личное сообщение  
 
   Похожие торренты   Автор   Торрент   Размер 
В этой теме нет новых непрочитанных сообщений. Не называй меня малышкой / Колючая проволока / Barb Wire [фантастика, боевик, 1996] BDRip 720p, Mvo+Avo+Sub

salma3

8 | 14

8.62 ГБ

В этой теме нет новых непрочитанных сообщений. Человек тьмы 3 / Darkman 3: Die Darkman Die [ужасы, фантастика, боевик, триллер, криминал, 1996] BDRip 720p, Mvo

salma3

32 | 3

3.96 ГБ

В этой теме нет новых непрочитанных сообщений. Птичка На Проводе / Bird On A Wire [боевик, триллер, комедия, 1990] HDTVRip, Mvo

salma3

174 | 12

1.45 ГБ

В этой теме нет новых непрочитанных сообщений. Птичка на проводе / Bird on a Wire [боевик, триллер, комедия, приключения, 1990] WEB-DLRip-AVC, MvO+Avo+Sub

salma3

100 | 17

1.45 ГБ

В этой теме нет новых непрочитанных сообщений. Незабываемое / Unforgettable [Фантастика, триллер, драма, детектив, 1996] BDRip 720p, Mvo

salma3

26 | 6

7.62 ГБ

В этой теме нет новых непрочитанных сообщений. Лепрекон 4: В космосе / Leprechaun 4: In Space [ужасы, фантастика, комедия, 1996] BDRip, Mvo

salma3

16 | 2

1.45 ГБ

В этой теме нет новых непрочитанных сообщений. Беглецы / Fled [Боевик, 1996] BDRip, Avo

salma3

51 | 14

1.46 ГБ


Начать новую тему Ответить на тему  [ 1 сообщение ] 




Для Мосгорсуда, Роскомнадзора и рекламодателей:: mosgorsud-torrent[собачка]yandex.ru