Торрент файл
скачать торрент магнет ссылка Добавлен: 29 мар 2015, 13:56
Размер: 745.96 МБ
Сидеров: 344
Личеров: 35
Статус: (salma3)
Автор

СообщениеДобавлено: 29 мар 2015, 13:56 

Не в сети
Супермодератор
Аватара пользователя
Дата регистрации:
06 июн 2014, 07:51
Спасибо: 576 / 0
Сообщения: 2002
Информация о фильме
Название: Меч мести
Оригинальное название: Sword of Vengeance
Год выхода: 2015
Жанр: боевик, исторический
Режиссер: Джим Видон
В ролях: Стэнли Вебер, Эдвард Экрут, Миша Берич, Пит Чеффи, Джанни Джардинелли, Милица Жевтич, Вид Кркетжич, Дэйв Леджено, Ненад Печинар, Карел Роден

О фильме: После победы в битве при Гастингсе Вильгельм Завоеватель отправил свою армию на север Англии для совершения свирепого разорительного вторжения. Самый грозный полководец короля, граф Дюран, вырезал сто тысяч саксов и разорил их земли. Теперь Дюран правит севером вместе с сыновьями Артусом и Романом. Уцелевшие живут в постоянном страхе. Но загадочный чужестранец вскоре возглавит их восстание.



Выпущено: Великобритания
Продолжительность: 01:26:53
Озвучивание: Любительское (двухголосое) [ColdFilm]

Файл
Кодек: XviD
Качество: WEB-DLRip
Видео: 656x272 (2,40:1), 23,976 fps, XviD 73 ~1068 kbps avg, 0.250 bit/pixel
Аудио: 48,0 kHz, MPEG Audio 3, 2 ch, ~128 kbps avg
Субтитры: нет

Семпл

Общее
Полное имя : D:ВидеоMech.Mesti.2015.WEB-DLRip by Vovan366(ExKinoRay).avi
Формат : AVI
Формат/Информация : Audio Video Interleave
Размер файла : 746 Мбайт
Продолжительность : 1 ч. 26 м.
Режим общего битрейта : Переменный
Общий поток : 1200 Кбит/сек
Программа кодирования : VirtualDubMod 1.5.10.3 | http://www.virtualdub-fr.org || (build 2550/release)
Библиотека кодирования : VirtualDubMod build 2550/release

Видео
Идентификатор : 0
Формат : MPEG-4 Visual
Профиль формата : Advanced Simple@L5
Параметр BVOP формата : 2
Параметр QPel формата : Нет
Параметр GMC формата : Без точки перехода
Параметр матрицы формата : Выборочная
Идентификатор кодека : XVID
Идентификатор кодека/Подсказка : XviD
Продолжительность : 1 ч. 26 м.
Битрейт : 1068 Кбит/сек
Ширина : 656 пикселей
Высота : 272 пикселя
Соотношение сторон : 2,40:1
Частота кадров : 23,976 кадра/сек
Цветовое пространство : YUV
Субдискретизация насыщенности : 4:2:0
Битовая глубина : 8 бит
Тип развёртки : Прогрессивная
Метод сжатия : С потерями
Бит/(Пиксели*Кадры) : 0.250
Размер потока : 664 Мбайт (89%)
Библиотека кодирования : XviD 73

Аудио
Идентификатор : 1
Формат : MPEG Audio
Версия формата : Version 1
Профиль формата : Layer 3
Режим : Joint stereo
Расширение режима : MS Stereo
Идентификатор кодека : 55
Идентификатор кодека/Подсказка : MP3
Продолжительность : 1 ч. 26 м.
Вид битрейта : Переменный
Битрейт : 119 Кбит/сек
Номинальный битрейт : 128 Кбит/сек
Каналы : 2 канала
Частота : 48,0 КГц
Метод сжатия : С потерями
Размер потока : 74,3 Мбайт (10%)
Выравнивание : Соединение по промежуткам
Продолжительность промежутка : 24 мс. (0,58 видеокадр)
Время предзагрузки промежутка : 154 мс.
Библиотека кодирования : LAME3.99r
Настройки программы : -m j -V 4 -q 2 -lowpass 17 --abr 128





реклама партнёра


Вернуться к началу
 Профиль Отправить личное сообщение  
 
   Похожие торренты   Автор   Торрент   Размер 
В этой теме нет новых непрочитанных сообщений. Меч мести / Sword of Vengeance (Джим Видон) [боевик, исторический, 2015] WEB-DLRip, avo

Dracon

2171 | 75

1.37 ГБ

В этой теме нет новых непрочитанных сообщений. Меч мести / Sword of Vengeance (Джим Видон) [2015, боевик, исторический, WEB-DLRip] dvo

Nickolas3435

1126 | 62

1.36 ГБ

В этой теме нет новых непрочитанных сообщений. Меч мести / Sword of Vengeance (Джим Видон) [боевик, исторический, 2015] WEB-DL 720p, avo

Dracon

985 | 38

2.76 ГБ

В этой теме нет новых непрочитанных сообщений. Gladiator: Sword Of Vengeance [Action, 2005] [RePack]

salma3

32 | 4

541.39 МБ

В этой теме нет новых непрочитанных сообщений. Последнее королевство / The Last Kingdom [S01] (Бен Чанан, Энтони Бирн) [2015, Исторический, боевик, мелодрама, WEB-DLRip | AlexFilm]

Nickolas3435

187 | 216

5.5 ГБ

В этой теме нет новых непрочитанных сообщений. Последнее королевство / The Last Kingdom [01х01-08 из 08] (Бен Чанан, Энтони Бирн) [2015, Исторический, боевик, мелодрама, WEB-DLRip | NewStudio]

Dracon

102 | 61

5.41 ГБ

В этой теме нет новых непрочитанных сообщений. Не те парни / The Wrong Mans [S02] (Джим Филд Смит) [2015, Комедия, WEB-DLRip | SNK-TV]

Dracon

138 | 17

1.21 ГБ


Начать новую тему Ответить на тему  [ 1 сообщение ] 




Для Мосгорсуда, Роскомнадзора и рекламодателей:: mosgorsud-torrent[собачка]yandex.ru