Торрент файл
скачать торрент магнет ссылка Добавлен: 27 мар 2015, 11:29
Размер: 1.46 ГБ
Сидеров: 21
Личеров: 6
Статус: (salma3)
Автор

СообщениеДобавлено: 27 мар 2015, 11:29 

Не в сети
Зам. Админа
Аватара пользователя
Дата регистрации:
02 дек 2010, 12:39
Спасибо: 12623 / 214
Сообщения: 28012
Год выхода: 2014
Жанр: боевик, триллер, криминал
Режиссер: Пако Кабесас
В ролях: Николас Кейдж, Рэйчел Николс, Петер Стормаре, Дэнни Гловер, Обри Пиплз, Елена Санчес, Майкл МакГрэйди, Павел Личникофф, Доун Хэмил, Макс Райан

О фильме:
Пол Магуаер — бывший гангстер, а теперь добропорядочный бизнесмен и примерный семьянин. Но когда его дочь похищают, он вынужден поднять свои старые связи и снова вернуться на скользкую дорожку…



Качество: HDRip
Видео: 720x304, 23.976 fps, XviD, ~1731 kbps
Аудио: 48 kHz, AC3, 6 ch, ~384 kbps
Продолжительность: 01:38:26
Перевод: Дублированный [ iTunes]
G:Gnev.2014.D.HDRip.1.46GB.avi
   General
      Complete name : G:Gnev.2014.D.HDRip.1.46GB.avi
      Format : AVI
      Format/Info : Audio Video Interleave
      File size : 1.46 GiB
      Duration : 1h 38mn
      Overall bit rate : 2 124 Kbps
      Writing application : VirtualDubMod 1.5.10.3 | http://www.virtualdub-fr.org || (build 2550/release)
      Writing library : VirtualDubMod build 2550/release
   Video #0
      ID : 0
      Format : MPEG-4 Visual
      Format profile : Advanced Simple@L5
      Format settings, BVOP : 2
      Format settings, QPel : No
      Format settings, GMC : No warppoints
      Format settings, Matrix : Default (MPEG)
      Codec ID : XVID
      Codec ID/Hint : XviD
      Duration : 1h 38mn
      Bit rate : 1 731 Kbps
      Width : 720 pixels
      Height : 304 pixels
      Display aspect ratio : 2.35:1
      Frame rate : 23.976 fps
      Color space : YUV
      Chroma subsampling : 4:2:0
      Bit depth : 8 bits
      Scan type : Progressive
      Compression mode : Lossy
      Bits/(Pixel*Frame) : 0.330
      Stream size : 1.19 GiB (81%)
      Writing library : XviD 1.2.1 (UTC 2008-12-04)
   Audio #1
      ID : 1
      Format : AC-3
      Format/Info : Audio Coding 3
      Mode extension : CM (complete main)
      Format settings, Endianness : Big
      Codec ID : 2000
      Duration : 1h 38mn
      Bit rate mode : Constant
      Bit rate : 384 Kbps
      Channel(s) : 6 channels
      Channel positions : Front: L C R, Side: L R, LFE
      Sampling rate : 48.0 KHz
      Bit depth : 16 bits
      Compression mode : Lossy
      Stream size : 270 MiB (18%)
      Alignment : Split accross interleaves
      Interleave, duration : 42 ms (1.00 video frame)
      Interleave, preload duration : 500 ms








реклама партнёра


Вернуться к началу
 Профиль  
 
   Похожие торренты   Автор   Торрент   Размер 
В этой теме нет новых непрочитанных сообщений. Гнев / Tokarev (Пако Кабесас) [Боевик, триллер, криминал, 2014] BDRip 1080p, Dub+Sub [iTunes]

Dracon

11 | 5

12.28 ГБ

В этой теме нет новых непрочитанных сообщений. Гнев / Tokarev (Пако Кабесас) [Боевик, триллер, криминал, 2014] HDRip, Dub [Лицензия]

Dracon

2110 | 92

1.46 ГБ

В этой теме нет новых непрочитанных сообщений. Гнев / Tokarev (Пако Кабесас) [Боевик, триллер, криминал, 2014] BDRip 1080p, Dub+Sub [Лицензия]

Dracon

408 | 25

13.49 ГБ

В этой теме нет новых непрочитанных сообщений. Гнев / Tokarev (Пако Кабесас) [Боевик, триллер, криминал, 2014] BDRip, dub [Чистый звук]

Dracon

1836 | 35

1.33 ГБ

В этой теме нет новых непрочитанных сообщений. Гнев / Tokarev (Пако Кабесас) [Боевик, триллер, криминал, 2014] BDRip 1080p, dub+sub [Чистый звук]

Dracon

787 | 172

12.19 ГБ

В этой теме нет новых непрочитанных сообщений. Я есть гнев / I Am Wrath [боевик, триллер, драма, криминал, 2016] HDRip, dvo

marya111

3794 | 419

1.41 ГБ

В этой теме нет новых непрочитанных сообщений. Великий уравнитель / The Equalizer [Боевик, Триллер, Криминал, 2014] HDRip, Dub [iTunes]

Dracon

153 | 7

1.46 ГБ


Начать новую тему Ответить на тему  [ 1 сообщение ] 




Для Мосгорсуда, Роскомнадзора и рекламодателей:: mosgorsud-torrent[собачка]yandex.ru