Торрент файл
скачать торрент магнет ссылка Добавлен: 22 мар 2015, 02:00
Размер: 743.96 МБ
Сидеров: 245
Личеров: 13
Статус: (salma3)
Автор

СообщениеДобавлено: 22 мар 2015, 02:00 

Не в сети
Супермодератор
Аватара пользователя
Дата регистрации:
06 июн 2014, 07:51
Спасибо: 576 / 0
Сообщения: 2002
Информация о фильме
Название: Приключения викингов
Оригинальное название: Viking Quest
Год выхода: 2014
Жанр: фэнтези, боевик
Режиссер: Тодор Чапканов
В ролях: Гарри Смит, Дженни Бойд, Оливер Уолкер, Аня Тейлор-Джой, Нэйт Феллоуз, Валентин Ганев, Веселин Мезеклиев, Бен Кросс, Кеймен Костов, Муса Исуфи

О фильме:
Скандинавия. VII век нашей эры. Эрик, молодой воин-викинг, объединяет усилия с конкурирующим кланом, чтобы спасти похищенную змеем из Мидгарда принцессу. Это опаснейшая задача с риском гораздо большим, чем риск потерять жизни. Спасая принцессу, они могут вызвать Рагнарок - конец света.


Страна: Канада, Болгария
Продолжительность: 01:27:59
Перевод: Профессиональный (многоголосый) [SDI]

Файл
Кодек: AVI (XviD)
Качество: HDRip
Видео: 656x368 (1.78:1), 23.976 fps, XviD build 73 ~1045 kbps avg, 0.18 bit/pixel
Звук: 48 kHz, MPEG Layer 3, 2 ch, ~128.00 kbps avg
Субтитры: нет

Семпл

Общее
Полное имя : S:ФильмыПриключения викингов. 2014. HDRip. (AleksSin).avi
Формат : AVI
Формат/Информация : Audio Video Interleave
Размер файла : 744 Мбайт
Продолжительность : 1 ч. 27 м.
Общий поток : 1182 Кбит/сек
Программа кодирования : VirtualDubMod 1.5.10.3 | http://www.virtualdub-fr.org || (build 2550/release)
Библиотека кодирования : VirtualDubMod build 2550/release

Видео
Идентификатор : 0
Формат : MPEG-4 Visual
Профиль формата : Advanced Simple@L5
Параметр BVOP формата : 1
Параметр QPel формата : Нет
Параметр GMC формата : Без точки перехода
Параметр матрицы формата : Выборочная
Идентификатор кодека : XVID
Идентификатор кодека/Подсказка : XviD
Продолжительность : 1 ч. 27 м.
Битрейт : 1045 Кбит/сек
Ширина : 656 пикс.
Высота : 368 пикс.
Соотношение сторон : 16:9
Частота кадров : 23,976 кадр/сек
Цветовое пространство : YUV
Подвыборка цветности : 4:2:0
Битовая глубина : 8 бит
Тип развёртки : Прогрессивная
Метод сжатия : С потерями
Бит/(Пиксели*Кадры) : 0.181
Размер потока : 658 Мбайт (88%)
Библиотека кодирования : XviD 73

Аудио
Идентификатор : 1
Формат : MPEG Audio
Версия формата : Version 1
Профиль формата : Layer 3
Идентификатор кодека : 55
Идентификатор кодека/Подсказка : MP3
Продолжительность : 1 ч. 27 м.
Вид битрейта : Постоянный
Битрейт : 128 Кбит/сек
Каналы : 2 канала
Частота : 48,0 КГц
Метод сжатия : С потерями
Размер потока : 80,6 Мбайт (11%)
Выравнивание : Соединение по промежуткам
Продолжительность промежутка : 42 мс. (1,00 видеокадр)
Время предзагрузки промежутка : 504 ms
Библиотека кодирования : LAME3.99r
Настройки программы : -m s -V 4 -q 2 -lowpass 17 -b 128




реклама партнёра


Вернуться к началу
 Профиль Отправить личное сообщение  
 
   Похожие торренты   Автор   Торрент   Размер 
В этой теме нет новых непрочитанных сообщений. Наследие викингов / Viking Legacy [боевик, приключения, 2016] HDRip, Mvo

salma3

433 | 399

1.37 ГБ

В этой теме нет новых непрочитанных сообщений. Наследие викингов / Viking Legacy [боевик, приключения, 2016] BDRip 720p, Mvo

salma3

1703 | 315

3.42 ГБ

В этой теме нет новых непрочитанных сообщений. Саги викингов / The Viking Sagas [Боевик, Исторический, Криминал, Приключения, 1996] DVDRip, Mvo

salma3

0 | 3

1.42 ГБ

В этой теме нет новых непрочитанных сообщений. Королевство викингов / Vikingdom [приключения, фэнтези, боевик, 2013] HDRip, mvo [BaibaKo]

Dracon

1390 | 102

1.37 ГБ

В этой теме нет новых непрочитанных сообщений. Королевство викингов / Vikingdom [Приключения, фэнтези, боевик, 2013] BDRip 1080p, Mvo [3D-Video] BaibaKo

salma3

1052 | 182

7.61 ГБ

В этой теме нет новых непрочитанных сообщений. Квест / The Quest / 1 сезон 1-3 серии из 10 [фэнтези, приключения, 2014] WEB-DLRip, Mvo [BaibaKo]

salma3

10 | 7

1.71 ГБ

В этой теме нет новых непрочитанных сообщений. Квест Арианы / Ariana's Quest [Фэнтези, боевик, приключения, 2002] DVDRip, Dvo

salma3

0 | 0

1.47 ГБ


Начать новую тему Ответить на тему  [ 1 сообщение ] 




Для Мосгорсуда, Роскомнадзора и рекламодателей:: mosgorsud-torrent[собачка]yandex.ru