Торрент файл
скачать торрент магнет ссылка Добавлен: 21 мар 2015, 22:00
Размер: 1.37 ГБ
Сидеров: 12
Личеров: 3
Статус: (salma3)
Автор

СообщениеДобавлено: 21 мар 2015, 22:00 

Не в сети
Зам. Админа
Аватара пользователя
Дата регистрации:
02 дек 2010, 12:39
Спасибо: 12538 / 214
Сообщения: 28076
Год выхода: 2014
Жанр: Ужасы, Триллер
Режиссер: Питер Корнвэлл
В ролях: Чендлер Риггз, Дилан МакДермотт, Фрэнсис О`Коннор, Марк Дюпласс Джоэл, Кортни Крис, Браунинг Хана, Хэйес Аманда, Уолш Ширли, Найт Джо Эгендер

О фильме:
Фильм снят по рассказу Стивена Кинга "Бабуля". У каждой семьи свои тайны. Вот и в семье 11-летнего Джорджа она тоже имеется. Вместе с матерью и братом он отправляется ухаживать за старой больной бабушкой, к чьим странноватым и ужасным сказкам он привык с самого детства. Но они ничто по сравнению со страшным проклятием его семьи, которое преследует их. Страшные сказки детства оживают, ведь бабуля не просто хранила их и передавала вначале детям, а потом внукам, но и была главной героиней самого страшного рассказа...

Кинопоиск   IMDB

Качество: WEB-DLRip
Видео: XviD, 720x304, 23.976 fps, 1768 kbit/s
Аудио #1: AC3, 48 kHz, 6 ch, 384 kbit/s | Русский
Аудио #2: AC3, 48 kHz, 6 ch, 320 kbit/s | Оригинал
Продолжительность: 01:18:39
Перевод: Дублированный [iTunes]

DownloadsMiloserdia.D.2014.WEB-DLRip.1400Mb.avi
  General
    Complete name : DownloadsMiloserdia.D.2014.WEB-DLRip.1400Mb.avi
    Format : AVI
    Format/Info : Audio Video Interleave
    File size : 1.37 GiB
    Duration : 1h 18mn
    Overall bit rate : 2 486 Kbps
    Writing application : VirtualDubMod 1.5.10.2 (build 2540/release)
    Writing library : VirtualDubMod build 2540/release
  Video #0
    ID : 0
    Format : MPEG-4 Visual
    Format profile : Advanced Simple@L5
    Format settings, BVOP : 2
    Format settings, QPel : No
    Format settings, GMC : No warppoints
    Format settings, Matrix : Default (MPEG)
    Codec ID : XVID
    Codec ID/Hint : XviD
    Duration : 1h 18mn
    Bit rate : 1 768 Kbps
    Width : 720 pixels
    Height : 304 pixels
    Display aspect ratio : 2.35:1
    Frame rate : 23.976 fps
    Color space : YUV
    Chroma subsampling : 4:2:0
    Bit depth : 8 bits
    Scan type : Progressive
    Compression mode : Lossy
    Bits/(Pixel*Frame) : 0.337
    Stream size : 994 MiB (71%)
    Writing library : XviD 1.2.1 (UTC 2008-12-04)
  Audio #1
    ID : 1
    Format : AC-3
    Format/Info : Audio Coding 3
    Mode extension : CM (complete main)
    Format settings, Endianness : Big
    Codec ID : 2000
    Duration : 1h 18mn
    Bit rate mode : Constant
    Bit rate : 384 Kbps
    Channel(s) : 6 channels
    Channel positions : Front: L C R, Side: L R, LFE
    Sampling rate : 48.0 KHz
    Bit depth : 16 bits
    Compression mode : Lossy
    Stream size : 216 MiB (15%)
    Alignment : Split accross interleaves
    Interleave, duration : 42 ms (1.00 video frame)
    Interleave, preload duration : 500 ms
  Audio #2
    ID : 2
    Format : AC-3
    Format/Info : Audio Coding 3
    Mode extension : CM (complete main)
    Format settings, Endianness : Big
    Codec ID : 2000
    Duration : 1h 18mn
    Bit rate mode : Constant
    Bit rate : 320 Kbps
    Channel(s) : 6 channels
    Channel positions : Front: L C R, Side: L R, LFE
    Sampling rate : 48.0 KHz
    Bit depth : 16 bits
    Compression mode : Lossy
    Stream size : 180 MiB (13%)
    Alignment : Split accross interleaves
    Interleave, duration : 42 ms (1.00 video frame)
    Interleave, preload duration : 500 ms








реклама партнёра


Вернуться к началу
 Профиль  
 
   Похожие торренты   Автор   Торрент   Размер 
В этой теме нет новых непрочитанных сообщений. Милосердие / Mercy [ужасы, триллер, 2014] WEB-DLRip, dvo

Dracon

1875 | 55

1.31 ГБ

В этой теме нет новых непрочитанных сообщений. Любовь и милосердие / Love & Mercy (Уильям Полад) [драма, биография, музыка, 2014] HDRip, Dub

Dracon

34 | 2

1.37 ГБ

В этой теме нет новых непрочитанных сообщений. Любовь и милосердие / Love & Mercy (Уильям Полад) [драма, биография, музыка, 2014] BDRip 720p, Dub

Dracon

2 | 0

5.62 ГБ

В этой теме нет новых непрочитанных сообщений. Любовь и милосердие / Love & Mercy (Уильям Полад) [драма, биография, музыка, 2014] BDRip 1080p, Dub

Dracon

1 | 0

8.9 ГБ

В этой теме нет новых непрочитанных сообщений. Питер. Лето. Любовь [Драма, мелодрама, 2014] WEB-DLRip, Mvo [iTunes]

Dracon

48 | 3

1.37 ГБ

В этой теме нет новых непрочитанных сообщений. Бивень / Tusk [Триллер, Ужасы, Комедия, 2014] WEB-DLRip, Dub [iTunes]

Dracon

10 | 4

1.46 ГБ

В этой теме нет новых непрочитанных сообщений. Грэйс / Grace [ужасы, триллер, 2014] WEB-DLRip 720p, Mvo [iTunes Russia]

Dracon

3 | 2

2.84 ГБ


Начать новую тему Ответить на тему  [ 1 сообщение ] 




Для Мосгорсуда, Роскомнадзора и рекламодателей:: mosgorsud-torrent[собачка]yandex.ru