Торрент файл
скачать торрент магнет ссылка Добавлен: 20 мар 2015, 11:15
Размер: 1.37 ГБ
Сидеров: 16
Личеров: 5
Статус: (salma3)
Автор

СообщениеДобавлено: 20 мар 2015, 11:15 

В сети
Супермодератор
Аватара пользователя
Дата регистрации:
15 фев 2012, 16:44
Возраст: 27
Спасибо: 5121 / 2089
Сообщения: 17342
Мороженщик / Ice Cream Man

Год выхода: 1995
Жанр: ужасы, комедия
Режиссер: Пол Норман

В ролях: Клинт Ховард, Джастин Исфельд, Энди МакЭфи, Дэвид Уорнер, Мики ЛеБо, Сэндал Бергман, Андреа Эванс

О фильме:
Пронзительный крик первой жертвы возвестил о прибытии Мороженщика. Сливочное лакомство теперь содержит новые ингредиенты.

Размеренная и спокойная жизнь небольшого провинциального городка уходит в прошлое, уступая место холодному террору беспощадного маньяка. Кто же прячется под скромной маской продавца мороженого? И кто станет его новой жертвой?..



Страна: США
Продолжительность: 01:29:27
Перевод: Авторский (одноголосый закадровый) [Ю.Сербин]

Файл
Качество: DVDRip
Формат файла: AVI
Видео кодек: XviD
Аудио кодек: AC3
Видео: 720x544 (4x3), 2006 kbps, 23,976 fps, 0,205 Bits/(Pixel*Frame)
Звук: AC3, 48 kHz, 2 ch, 192 kbps


General
Complete name : I:Ice.Cream.Man.1995.DVDRip_by_Bathory.avi
Format : AVI
Format/Info : Audio Video Interleave
File size : 1.37 GiB
Duration : 1h 29mn
Overall bit rate : 2 193 Kbps
Writing application : VirtualDubMod 1.5.10.3 | http://www.virtualdub-fr.org || (build 2550/release)
Writing library : VirtualDubMod build 2550/release

Video
ID : 0
Format : MPEG-4 Visual
Format profile : Advanced Simple@L5
Format settings, BVOP : 1
Format settings, QPel : No
Format settings, GMC : No warppoints
Format settings, Matrix : Custom
Codec ID : XVID
Codec ID/Hint : XviD
Duration : 1h 29mn
Bit rate : 2 006 Kbps
Width : 720 pixels
Height : 544 pixels
Display aspect ratio : 4:3
Frame rate : 25.000 fps
Color space : YUV
Chroma subsampling : 4:2:0
Bit depth : 8 bits
Scan type : Progressive
Compression mode : Lossy
Bits/(Pixel*Frame) : 0.205
Stream size : 1.25 GiB (91%)
Writing library : XviD 73

Audio
ID : 1
Format : AC-3
Format/Info : Audio Coding 3
Mode extension : CM (complete main)
Format settings, Endianness : Big
Codec ID : 2000
Duration : 1h 22mn
Bit rate mode : Constant
Bit rate : 192 Kbps
Channel(s) : 2 channels
Channel positions : Front: L R
Sampling rate : 48.0 KHz
Bit depth : 16 bits
Compression mode : Lossy
Stream size : 114 MiB (8%)
Alignment : Split accross interleaves
Interleave, duration : 43 ms (1.08 video frame)
Interleave, preload duration : 500 ms



Релиз от: Автор рипа: _Bathory_[/font]


_________________



реклама партнёра


Вернуться к началу
 Профиль Отправить личное сообщение  
 
   Похожие торренты   Автор   Торрент   Размер 
В этой теме нет новых непрочитанных сообщений. Лепрекон 3: Приключения в Лас-Вегасе / Leprechaun 3 [ужасы, фэнтези, комедия, 1995] BDRip, Mvo

salma3

22 | 3

1.45 ГБ

В этой теме нет новых непрочитанных сообщений. Опасная соблазнительница / Dangerous Seductress [ужасы, 1995] DVDRip, Avo

salma3

69 | 6

1.46 ГБ

В этой теме нет новых непрочитанных сообщений. Дух ночи / Huntress: Spirit of the Night [ужасы, 1995] DVDRip, Avo

salma3

5 | 2

1.46 ГБ

В этой теме нет новых непрочитанных сообщений. Убежище / Hideaway [ужасы, фэнтези, триллер, 1995] DVDRip, Mvo

salma3

33 | 3

1.37 ГБ

В этой теме нет новых непрочитанных сообщений. Зловещая сила / Grim [ужасы, фэнтези, триллер, 1995] DVDRip, Dvo [Рен тв]

salma3

12 | 8

1.37 ГБ

В этой теме нет новых непрочитанных сообщений. Искусительница / Temptress / Gottliche Versuchung [ужасы, триллер, 1995] DVDRip, Dvo

salma3

1 | 2

1.58 ГБ

В этой теме нет новых непрочитанных сообщений. Потрошитель разума / The Outpost [ужасы, фантастика, 1995] DVDRip, 2Avo+Mvo

salma3

57 | 3

1.46 ГБ


Начать новую тему Ответить на тему  [ 1 сообщение ] 




Для Мосгорсуда, Роскомнадзора и рекламодателей:: mosgorsud-torrent[собачка]yandex.ru