Торрент файл
скачать торрент магнет ссылка Добавлен: 17 мар 2015, 12:51
Размер: 2.37 ГБ
Сидеров: 819
Личеров: 46
Статус: (salma3)
Автор

СообщениеДобавлено: 17 мар 2015, 12:51 

Не в сети
Зам. Админа
Аватара пользователя
Дата регистрации:
02 дек 2010, 12:39
Спасибо: 12461 / 214
Сообщения: 27968
Год выхода: 2014
Жанр: драма, военный, биография, спорт
Режиссер: Анджелина Джоли
В ролях: Джек О'Коннелл, Донал Глисон, Такамаса Исихара, Гаррет Хедлунд, Финн Уиттрок, Мэттью Крокер, Джай Кортни, Маддалена Искьяле, Винченцо Амато, Джон Магаро

О фильме: Фильм основан на реальных событиях и рассказывает об американце Луи Замперини, который принимал участие в Олимпийских играх 1936 года в Берлине. Он не одержал победу в финальном забеге, но, по какой-то причине, снискал расположение Гитлера, который пригласил его к себе в ложу. Предполагалось, что Замперини примет участие и в следующих Олимпийских играх, но из-за начала Второй мировой войны он был вынужден отправиться на фронт. Его самолет был сбит над Японией, а сам Замперини попал в плен к японцам, где пережил многочисленные пытки. Домой он вернулся уже лишь после окончания войны.


Выпущено: США
Продолжительность: 02:17:28
Озвучивание: Дублированное [iTunes]

Качество: HDRip (AVC)
Видео: MPEG-4 AVC, 1701 Кбит/с, 1024х426
Аудио: Русский, английский (AC3, 6 ch, 384 Кбит/с)
Субтитры: Английские

General
Unique ID : 197059560859957177681489015945516354000 (0x94404A78FFC203E9843CB2DBE4A509D0)
Complete name : C:Unbroken.2014.D.HDRip.AVC.ExKinoRay.mkv.mkv
Format : Matroska
Format version : Version 4 / Version 2
File size : 2.37 GiB
Duration : 2h 17mn
Overall bit rate : 2 470 Kbps
Movie name : Unbroken 2014 from ExKinoRay
Encoded date : UTC 2015-03-17 04:53:32
Writing application : mkvmerge v6.6.0 ('The Edge Of The In Between') built on Dec 1 2013 17:55:00
Writing library : libebml v1.3.0 + libmatroska v1.4.1

Video
ID : 1
Format : AVC
Format/Info : Advanced Video Codec
Format profile : High@L4.1
Format settings, CABAC : Yes
Format settings, ReFrames : 12 frames
Codec ID : V_MPEG4/ISO/AVC
Duration : 2h 17mn
Bit rate : 1 701 Kbps
Width : 1 024 pixels
Height : 426 pixels
Display aspect ratio : 2.40:1
Frame rate mode : Constant
Frame rate : 23.976 fps
Color space : YUV
Chroma subsampling : 4:2:0
Bit depth : 8 bits
Scan type : Progressive
Bits/(Pixel*Frame) : 0.163
Stream size : 1.59 GiB (67%)
Title : Enigma_Vladislav71
Writing library : x264 core 133 r2334 a3ac64b
Encoding settings : cabac=1 / ref=12 / deblock=1:-2:-2 / analyse=0x3:0x113 / me=umh / subme=10 / psy=1 / psy_rd=1.05:0.15 / mixed_ref=1 / me_range=32 / chroma_me=1 / trellis=2 / 8x8dct=1 / cqm=0 / deadzone=21,11 / fast_pskip=0 / chroma_qp_offset=-3 / threads=12 / lookahead_threads=2 / sliced_threads=0 / nr=0 / decimate=0 / interlaced=0 / bluray_compat=0 / constrained_intra=0 / bframes=8 / b_pyramid=2 / b_adapt=2 / b_bias=0 / direct=3 / weightb=1 / open_gop=0 / weightp=2 / keyint=240 / keyint_min=23 / scenecut=40 / intra_refresh=0 / rc=2pass / mbtree=0 / bitrate=1701 / ratetol=1.0 / qcomp=0.60 / qpmin=0 / qpmax=51 / qpstep=4 / cplxblur=20.0 / qblur=0.5 / ip_ratio=1.40 / pb_ratio=1.30 / aq=1:1.00
Language : English
Default : Yes
Forced : No
Color primaries : BT.709
Transfer characteristics : BT.709
Matrix coefficients : BT.709

Audio #1
ID : 2
Format : AC-3
Format/Info : Audio Coding 3
Mode extension : CM (complete main)
Format settings, Endianness : Big
Codec ID : A_AC3
Duration : 2h 17mn
Bit rate mode : Constant
Bit rate : 384 Kbps
Channel(s) : 6 channels
Channel positions : Front: L C R, Side: L R, LFE
Sampling rate : 48.0 KHz
Bit depth : 16 bits
Compression mode : Lossy
Delay relative to video : 4ms
Stream size : 378 MiB (16%)
Title : DUB (iTunes)
Language : Russian
Default : Yes
Forced : No

Audio #2
ID : 3
Format : AC-3
Format/Info : Audio Coding 3
Mode extension : CM (complete main)
Format settings, Endianness : Big
Codec ID : A_AC3
Duration : 2h 17mn
Bit rate mode : Constant
Bit rate : 384 Kbps
Channel(s) : 6 channels
Channel positions : Front: L C R, Side: L R, LFE
Sampling rate : 48.0 KHz
Bit depth : 16 bits
Compression mode : Lossy
Stream size : 378 MiB (16%)
Language : English
Default : No
Forced : No

Text #1
ID : 4
Format : UTF-8
Codec ID : S_TEXT/UTF8
Codec ID/Info : UTF-8 Plain Text
Title : SDH
Language : English
Default : No
Forced : No

Text #2
ID : 5
Format : UTF-8
Codec ID : S_TEXT/UTF8
Codec ID/Info : UTF-8 Plain Text
Language : English
Default : No
Forced : No

Menu
00:00:00.000 : en:00:00:00.000
00:08:21.042 : en:00:08:21.042
00:13:23.803 : en:00:13:23.803
00:20:05.371 : en:00:20:05.371
00:27:16.969 : en:00:27:16.969
00:31:41.066 : en:00:31:41.066
00:37:22.657 : en:00:37:22.657
00:44:47.143 : en:00:44:47.143
00:49:56.952 : en:00:49:56.952
00:59:48.585 : en:00:59:48.585
01:10:16.295 : en:01:10:16.295
01:17:03.911 : en:01:17:03.911
01:21:50.989 : en:01:21:50.989
01:28:27.677 : en:01:28:27.677
01:32:41.514 : en:01:32:41.514
01:38:30.446 : en:01:38:30.446
01:44:09.994 : en:01:44:09.994
01:53:10.617 : en:01:53:10.617
02:01:39.167 : en:02:01:39.167
02:11:38.349 : en:02:11:38.349





реклама партнёра


Вернуться к началу
 Профиль  
 
   Похожие торренты   Автор   Торрент   Размер 
В этой теме нет новых непрочитанных сообщений. Несломленный / Unbroken (Анджелина Джоли) [драма, военный, биография, спорт, 2014] HDRip, Dub [iTunes]

Dracon

1265 | 78

1.37 ГБ

В этой теме нет новых непрочитанных сообщений. Несломленный / Unbroken (Анджелина Джоли) [драма, военный, биография, спорт, 2014] WEB-DLRip, Dub [iTunes]

Dracon

1228 | 10

1.37 ГБ

В этой теме нет новых непрочитанных сообщений. Несломленный / Unbroken (Анджелина Джоли) [драма, военный, биография, спорт, 2014] WEB-DLRip, Dub [iTunes]

Dracon

1356 | 39

2.05 ГБ

В этой теме нет новых непрочитанных сообщений. Несломленный / Unbroken (Анджелина Джоли) [драма, военный, биография, спорт, 2014] WEB-DL 720p, Dub [iTunes]

Dracon

1567 | 234

4.58 ГБ

В этой теме нет новых непрочитанных сообщений. Несломленный / Unbroken (Анджелина Джоли) [драма, военный, биография, спорт, 2014] WEB-DL 1080p, Dub [iTunes]

Dracon

11 | 2

4.97 ГБ

В этой теме нет новых непрочитанных сообщений. Несломленный / Unbroken (Анджелина Джоли) [драма, военный, биография, спорт, 2014] BDRip 720p, Dub [iTunes]

Dracon

295 | 27

5.83 ГБ

В этой теме нет новых непрочитанных сообщений. Несломленный / Unbroken (Анджелина Джоли) [драма, военный, биография, спорт, 2014] BDRemux 1080p, Dub [iTunes]

Dracon

100 | 17

27.31 ГБ


Начать новую тему Ответить на тему  [ 1 сообщение ] 




Для Мосгорсуда, Роскомнадзора и рекламодателей:: mosgorsud-torrent[собачка]yandex.ru