Торрент файл
скачать торрент магнет ссылка Добавлен: 14 мар 2015, 00:01
Размер: 1.45 ГБ
Сидеров: 367
Личеров: 8
Статус: (salma3)
Автор

СообщениеДобавлено: 14 мар 2015, 00:01 

Не в сети
Супермодератор
Аватара пользователя
Дата регистрации:
06 июн 2014, 07:51
Спасибо: 576 / 0
Сообщения: 2002
Информация о фильме
Название: Люпен III
Оригинальное название: Lupin III
Год выпуска: 2014
Жанр: боевик, комедия, приключения
Режиссер: Рюхэй Китамура
В ролях: Таданобу Асано, Ейяинг Рхатха Пхонгам, Ник Тейт, Витхая Пансрингарм, Джеффри Джулиано, Меиса Куроки, Сюн Огури, Джерри Янь, Сахайак Бунсанакит, Нирут Сиричанья

О фильме: История о гениальном воре Люпине Третьем, высылающем визитные карточки своим будущим жертвам.



Производство: Япония
Продолжительность: 02:12:53
Озвучивание: Любительское (двухголосое) [DeadSno & den904]

Файл
Формат: AVI (XviD)
Качество: HDRip [Рип с BDRip 720p]
Видео: 1363 kb/s, 720x304
Аудио: AC3, 192 kb/s (2 ch)

Format : AVI
Format/Info : Audio Video Interleave
File size : 1.45 GiB
Duration : 2h 12mn
Overall bit rate : 1 565 Kbps
Writing application : VirtualDubMod 1.5.10.3 | http://www.virtualdub-fr.org || (build 2550/release)
Writing library : VirtualDubMod build 2550/release

Video
ID : 0
Format : MPEG-4 Visual
Format profile : Advanced Simple@L5
Format settings, BVOP : 1
Format settings, QPel : No
Format settings, GMC : No warppoints
Format settings, Matrix : Custom
Codec ID : XVID
Codec ID/Hint : XviD
Duration : 2h 12mn
Bit rate : 1 363 Kbps
Width : 720 pixels
Height : 304 pixels
Display aspect ratio : 2.35:1
Frame rate : 23.976 fps
Color space : YUV
Chroma subsampling : 4:2:0
Bit depth : 8 bits
Scan type : Progressive
Compression mode : Lossy
Bits/(Pixel*Frame) : 0.260
Stream size : 1.27 GiB (87%)
Writing library : XviD 73

Audio
ID : 1
Format : AC-3
Format/Info : Audio Coding 3
Mode extension : CM (complete main)
Format settings, Endianness : Big
Codec ID : 2000
Duration : 2h 12mn
Bit rate mode : Constant
Bit rate : 192 Kbps
Channel(s) : 2 channels
Channel positions : Front: L R
Sampling rate : 48.0 KHz
Bit depth : 16 bits
Compression mode : Lossy
Delay relative to video : 392ms
Stream size : 182 MiB (12%)
Alignment : Split accross interleaves
Interleave, duration : 42 ms (1.00 video frame)
Interleave, preload duration : 500 ms




реклама партнёра


Вернуться к началу
 Профиль Отправить личное сообщение  
 
   Похожие торренты   Автор   Торрент   Размер 
В этой теме нет новых непрочитанных сообщений. Не мой день / Nicht mein Tag [боевик, комедия, криминал, приключения, 2014] HDRip, mvo

Dracon

15 | 2

1.47 ГБ

В этой теме нет новых непрочитанных сообщений. Черепашки-ниндзя / Teenage Mutant Ninja Turtles [фантастика, фэнтези, боевик, комедия, приключения, 2014] HDRip, Dub [iPad]

salma3

177 | 16

1.35 ГБ

В этой теме нет новых непрочитанных сообщений. Факап, или Хуже не бывает / Nicht mein Tag (Петер Торварт) [боевик, комедия, криминал, приключения, 2014] HDRip, dub [звук с TS]

Dracon

9 | 0

1.47 ГБ

В этой теме нет новых непрочитанных сообщений. Факап, или Хуже не бывает / Nicht mein Tag (Петер Торварт) [боевик, комедия, криминал, приключения, 2014] HDRip, dub [звук с TS]

Dracon

4 | 0

2.06 ГБ

В этой теме нет новых непрочитанных сообщений. Факап, или Хуже не бывает / Nicht mein Tag (Петер Торварт) [боевик, комедия, криминал, приключения, 2014] HDRip, Dub [iTunes]

Dracon

6 | 0

1.46 ГБ

В этой теме нет новых непрочитанных сообщений. Черепашки-ниндзя / Teenage Mutant Ninja Turtles [фантастика, фэнтези, боевик, комедия, приключения, 2014] HDRip, Dub [iTunes Russia]

Dracon

2233 | 59

1.41 ГБ

В этой теме нет новых непрочитанных сообщений. Kingsman: Секретная служба / Kingsman: The Secret Service (Мэттью Вон) [боевик, комедия, криминал, приключения, 2014] HDRip, Dub [Лицензия]

Dracon

11 | 0

1.46 ГБ


Начать новую тему Ответить на тему  [ 1 сообщение ] 




Для Мосгорсуда, Роскомнадзора и рекламодателей:: mosgorsud-torrent[собачка]yandex.ru